Иллюзия обмана 2 / Now You See Me 2 (2016) BDRip от ExKinoRay | RUS Transfer | Лицензия

 

Создавать темы 20-Авг-2016 08:31

Информация о фильме
Название: Иллюзия обмана 2
Оригинальное название: Now You See Me 2
Год выхода: 2016
Жанр: Боевик, триллер, комедия
Режиссер: Джон М. Чу
В ролях: Лиззи Каплан, Дэниэл Рэдклифф, Дэйв Франко, Марк Руффало, Джесси Айзенберг, Морган Фриман, Вуди Харрельсон, Майкл Кейн
О фильме:
«Четыре всадника», команда лучших иллюзионистов мира, снова в сборе! Их «магия» стала еще совершеннее, а враги — опаснее. На сей раз им предстоит спасти свою репутацию и вывести на чистую воду жестокого техномагната…

Страна: США
Студия: Lionsgate, Summit Entertainment
Продолжительность: 02:09:29
Перевод: Профессиональный (полное дублирование) | Лицензия
Файл
Кодек: XviD
Качество: BDRip (NOW_YOU_SEE_ME_2_REMUX_HDCLUBBDMVSTREAM�0000.m2ts)
Видео: 656x368 (16:9), 24,000 fps, XviD 73 ~1428 kbps avg, 0.247 bit/pixel
Аудио: 48.0 kHz, AC3 Dolby Digital, 2/0 (L,R) ch, ~192 kbps |Дубляж | Лицензия|

Инфо файл

Общее
Полное имя : D:TempIlljuzija.Obmana.2.2016.XviD.BDRip by Vovan366(ExKinoRay).avi
Формат : AVI
Формат/Информация : Audio Video Interleave
Размер файла : 1,47 Гбайт
Продолжительность : 2 ч. 9 м.
Общий поток : 1630 Кбит/сек
Программа кодирования : VirtualDubMod 1.5.10.3 | www.virtualdub-fr.org || (build 2550/release)
Библиотека кодирования : VirtualDubMod build 2550/release
Видео
Идентификатор : 0
Формат : MPEG-4 Visual
Профиль формата : Advanced [email protected]
Параметр BVOP формата : 2
Параметр QPel формата : Нет
Параметр GMC формата : Без точки перехода
Параметр матрицы формата : Выборочная
Режим смешивания : Сжатый битовый поток
Идентификатор кодека : XVID
Идентификатор кодека/Подсказка : XviD
Продолжительность : 2 ч. 9 м.
Битрейт : 1428 Кбит/сек
Ширина : 656 пикселей
Высота : 368 пикселей
Соотношение сторон : 16:9
Частота кадров : 24,000 кадра/сек
Цветовое пространство : YUV
Субдискретизация насыщенности : 4:2:0
Битовая глубина : 8 бит
Тип развёртки : Прогрессивная
Метод сжатия : С потерями
Бит/(Пиксели*Кадры) : 0.247
Размер потока : 1,29 Гбайт (88%)
Библиотека кодирования : XviD 73
Аудио
Идентификатор : 1
Формат : AC-3
Формат/Информация : Audio Coding 3
Расширение режима : CM (complete main)
Параметр Endianness формата : Big
Идентификатор кодека : 2000
Продолжительность : 2 ч. 9 м.
Вид битрейта : Постоянный
Битрейт : 192 Кбит/сек
Каналы : 2 канала
Расположение каналов : Front: L R
Частота : 48,0 КГц
Битовая глубина : 16 бит
Метод сжатия : С потерями
Размер потока : 178 Мбайт (12%)
Выравнивание : Разделение по промежуткам
Продолжительность промежутка : 42 мс. (1,00 видеокадр)
Время предзагрузки промежутка : 500 мс.

Скриншоты

Релиз от:
Rip by: Vovan366
Яндекс.Метрика
Рейтинг@Mail.ru