Иллюзия обмана 2 / Now You See Me 2 (2016) BDRip [H.264/1080p]

 

Создавать темы 19-Авг-2016 18:45

- Иллюзия обмана 2 / Now You See Me 2 (2016) BDRip [H.264/1080p]- Производство: США, Китай, Великобритания, Канада, Lionsgate, Summit Entertainment
Жанр: Боевик, Триллер, Комедия, Криминал, Детектив, Приключения
Режиссер: Джон М. Чу
Продюсер: Бобби Коэн, Алекс Куртцман, Роберто Орси
Актеры: Дэниэл Рэдклифф, Лиззи Каплан, Джесси Айзенберг, Марк Руффало, Дэйв Франк, Вуди Харрельсон, Майкл Кейн, Санаа Лэтэn, Генри Ллойд-Хьюз, Джей Чоу
Описание:
«Четыре всадника», команда лучших иллюзионистов мира, снова в сборе! Их «магия» стала еще совершеннее, а враги — опаснее. На сей раз им предстоит спасти свою репутацию и вывести на чистую воду жестокого техномагната…
-Возраст: 12+ (зрителям, достигшим 12 лет)
Рейтинг MPAA: PG-13 (детям до 13 лет просмотр нежелателен)
Дата мировой премьеры: 2 июня 2016
Дата премьеры в России: 9 июня 2016, «Централ Партнершип»

Продолжительность: 02:09:29
Качество видео: BDRip
Перевод: Дублированный (Лицензия)
Вид субтитров: Вшитые отключаемые
Язык субтитров: Английский
Видео: AVC/H.264, 1920x1080, 11800 kbps
Аудио »1: 48 kHz, AC3 Dolby Digital, 3/2 (L,C,R,l,r) + LFE ch, ~640 kbps (Русский)
Аудио »2: 48 kHz, DTS, 3/2 (L,C,R,l,r) + LFE ch, ~1536 kbps (Русский)
Аудио »3: 48 kHz, AC3 Dolby Digital, 3/2 (L,C,R,l,r) + LFE ch, ~384 kbps (Английский)

MI

Общее
Уникальный идентификатор : 242959741554805324835386152200402893170 (0xB6C8581A7BA5293DB154B774B0EBF972)
Полное имя : D:\Релизы\Иллюзия.обмана.2016.BDRip.[1080p].NNMClub.to.mkv
Формат : Matroska
Версия формата : Version 2
Размер файла : 12,3 Гбайт
Продолжительность : 2 ч. 9 м.
Общий поток : 13,6 Мбит/сек
Название фильма : Иллюзия.обмана.2016.BDRip.[1080p].NNMClub.to
Дата кодирования : UTC 2016-08-19 16:07:26
Программа кодирования : mkvmerge v8.3.0 ('Over the Horizon') 64bit
Библиотека кодирования : libebml v1.3.1 + libmatroska v1.4.2
Видео
Идентификатор : 1
Формат : AVC
Формат/Информация : Advanced Video Codec
Профиль формата : [url=mailto:[email protected]][email protected][/url]
Параметр CABAC формата : Да
Параметр ReFrames формата : 4 кадра
Идентификатор кодека : V_MPEG4/ISO/AVC
Продолжительность : 2 ч. 9 м.
Битрейт : 10,8 Мбит/сек
Номинальный битрейт : 11,5 Мбит/сек
Ширина : 1920 пикселей
Высота : 1080 пикселей
Соотношение сторон : 16:9
Режим частоты кадров : Постоянный
Частота кадров : 24,000 кадра/сек
Цветовое пространство : YUV
Субдискретизация насыщенности : 4:2:0
Битовая глубина : 8 бит
Тип развёртки : Прогрессивная
Бит/(Пиксели*Кадры) : 0.218
Размер потока : 9,79 Гбайт (79%)
Заголовок : Иллюзия.обмана.2016.BDRip.[1080p].NNMClub.to
Библиотека кодирования : x264 core 148 r2597M e86f3a1
Настройки программы : cabac=1 / ref=4 / deblock=1:-2:-2 / analyse=0x3:0x113 / me=umh / subme=7 / psy=1 / psy_rd=1.00:0.15 / mixed_ref=1 / me_range=16 / chroma_me=1 / trellis=1 / 8x8dct=1 / cqm=0 / deadzone=21,11 / fast_pskip=1 / chroma_qp_offset=-3 / threads=40 / lookahead_threads=8 / sliced_threads=0 / nr=0 / decimate=1 / interlaced=0 / bluray_compat=0 / constrained_intra=0 / bframes=3 / b_pyramid=2 / b_adapt=2 / b_bias=0 / direct=3 / weightb=1 / open_gop=0 / weightp=2 / keyint=250 / keyint_min=25 / scenecut=40 / intra_refresh=0 / rc_lookahead=50 / rc=abr / mbtree=1 / bitrate=11500 / ratetol=1.0 / qcomp=0.60 / qpmin=0 / qpmax=69 / qpstep=4 / vbv_maxrate=31250 / vbv_bufsize=31250 / nal_hrd=none / filler=0 / ip_ratio=1.40 / aq=1:1.00
Язык : English
Default : Да
Forced : Нет
Аудио #1
Идентификатор : 2
Формат : AC-3
Формат/Информация : Audio Coding 3
Расширение режима : CM (complete main)
Параметр Endianness формата : Big
Идентификатор кодека : A_AC3
Продолжительность : 2 ч. 9 м.
Вид битрейта : Постоянный
Битрейт : 640 Кбит/сек
Каналы : 6 каналов
Расположение каналов : Front: L C R, Side: L R, LFE
Частота : 48,0 КГц
Метод сжатия : С потерями
Размер потока : 593 Мбайт (5%)
Заголовок : Дубляж, Blu-ray
Язык : Russian
Default : Да
Forced : Да
Аудио #2
Идентификатор : 3
Формат : DTS
Формат/Информация : Digital Theater Systems
Режим : 16
Параметр Endianness формата : Big
Идентификатор кодека : A_DTS
Продолжительность : 2 ч. 9 м.
Вид битрейта : Постоянный
Битрейт : 1509 Кбит/сек
Каналы : 6 каналов
Расположение каналов : Front: L C R, Side: L R, LFE
Частота : 48,0 КГц
Битовая глубина : 24 бит
Метод сжатия : С потерями
Размер потока : 1,36 Гбайт (11%)
Заголовок : Дубляж, Blu-ray
Язык : Russian
Default : Нет
Forced : Нет
Аудио #3
Идентификатор : 4
Формат : AC-3
Формат/Информация : Audio Coding 3
Расширение режима : CM (complete main)
Параметр Endianness формата : Big
Идентификатор кодека : A_AC3
Продолжительность : 2 ч. 9 м.
Вид битрейта : Постоянный
Битрейт : 384 Кбит/сек
Каналы : 6 каналов
Расположение каналов : Front: L C R, Side: L R, LFE
Частота : 48,0 КГц
Метод сжатия : С потерями
Размер потока : 356 Мбайт (3%)
Заголовок : Original
Язык : English
Default : Нет
Forced : Нет
Текст
Идентификатор : 5
Формат : UTF-8
Идентификатор кодека : S_TEXT/UTF8
Идентификатор кодека/Информация : UTF-8 Plain Text
Заголовок : Full
Язык : English
Default : Нет
Forced : Нет
Скриншоты:
Яндекс.Метрика
Рейтинг@Mail.ru