[ Сегодня на трекере фрилич! Идет свободное скачивание без начисления Download ]

Проповедник / Пастырь / Preacher / Сезон: 1 / Серии: 1-9 (10) (Эван Голдберг / Evan Goldberg, ...) [2016 г., фэнтези, драма, детектив, приключения, WEB-DL, 720p] DVO (Кубик в Кубе) + Original (Eng) + Sub (Eng) [Обновляемая]

 

Создавать темы 19-Авг-2016 03:23

-Проповедник / Пастырь / Preacher
(1 сезон)
-- Производство: США
Жанр: фэнтези, драма, детектив, приключения
Год выпуска: 2016 г.
Продолжительность: 9x ~00:43:00Перевод: Профессиональный (двухголосый, закадровый) [Кубик в Кубе]
Оригинальный аудиопоток: английскийРежиссер: Эван Голдберг / Evan Goldberg, Сет Роген / Seth Rogen, Майкл Словис / Michael Slovis, ...-В ролях: Доминик Купер, Джозеф Гилган, Рут Негга, Люси Гриффитс, У. Эрл Браун, Том Брук, Анатол Юсеф, Йен Коллетти, Дерек Уилсон, Джеки Эрл Хейли-Описание: Священник Джесси Кастер по воле случая стал носителем внутри своего естества странного существа по имени Генезис. Это дитя совокупления ангела и демона представляет собой одновременно чистый идеал и квинтэссенцию света, но также сгусток абсолютного зла. Генезис — единственное существо во Вселенной, которое может встать вровень с Богом, если того пожелает, а его носитель автоматически становится самым могущественным существом в материальном мире. И это проповедник Кастер.- -Качество видео: WEB-DL
Контейнер: MKV
Стандарт разрешения: 720p
Видео кодек: H.264/AVC
Аудио кодек: AC3
Видео: 1280x718 at 23.976 fps, ~4000 kbps avg
Аудио: Russian: 48 kHz, AC3, 3/2 (L,C,R,l,r) + LFE ch, ~384.00 kbps avg |Двухголосый закадровый, Кубик в Кубе| - (присутствует ненормативная лексика)
Аудио #2: English: 48 kHz, AC3, 3/2 (L,C,R,l,r) + LFE ch, ~384.00 kbps avgCубтитры: английские

Список серий

01. Пилот / Pilot
02. Вижу / See
03. Возможности / The Possibilities
04. Болотное чудовище / Monster Swamp
05. Юг поднимется вновь / South Will Rise Again
06. Бродяга / Sundowner
07. Его не стало / He Gone
08. Аламо / El Valero
09. Закончи песню / Finish the Song

10. Вызов и ответ / Call and Response

Media Info

Код:
Format                      : Matroska
Format version              : Version 4 / Version 2
File size                   : 2.14 GiB
Duration                    : 1h 4mn
Overall bit rate            : 4 725 Kbps
Movie name                  : Preacher 01x01 (Pilot)
Encoded date                : UTC 2016-05-27 21:58:29
Writing application         : mkvmerge v6.7.0 ('Back to the Ground') 64bit built on Jan  8 2014 15:10:52
Writing library             : libebml v1.3.0 + libmatroska v1.4.1Video
ID                          : 1
Format                      : AVC
Format/Info                 : Advanced Video Codec
Format profile              : [email protected]/*  */
Format settings, CABAC      : No
Format settings, ReFrames   : 2 frames
Codec ID                    : V_MPEG4/ISO/AVC
Duration                    : 1h 4mn
Bit rate                    : 3 863 Kbps
Width                       : 1 280 pixels
Height                      : 718 pixels
Display aspect ratio        : 16:9
Frame rate mode             : Constant
Frame rate                  : 23.976 fps
Color space                 : YUV
Chroma subsampling          : 4:2:0
Bit depth                   : 8 bits
Scan type                   : Progressive
Bits/(Pixel*Frame)          : 0.175
Stream size                 : 1.75 GiB (82%)
Language                    : English
Default                     : Yes
Forced                      : No
Color primaries             : BT.709
Transfer characteristics    : BT.709
Matrix coefficients         : BT.709
Color range                 : LimitedAudio #1
ID                          : 2
Format                      : AC-3
Format/Info                 : Audio Coding 3
Mode extension              : CM (complete main)
Format settings, Endianness : Big
Codec ID                    : A_AC3
Duration                    : 1h 4mn
Bit rate mode               : Constant
Bit rate                    : 384 Kbps
Channel(s)                  : 6 channels
Channel positions           : Front: L C R, Side: L R, LFE
Sampling rate               : 48.0 KHz
Bit depth                   : 16 bits
Compression mode            : Lossy
Stream size                 : 178 MiB (8%)
Title                       : KvK 5.1
Language                    : Russian
Default                     : Yes
Forced                      : NoAudio #2
ID                          : 3
Format                      : AC-3
Format/Info                 : Audio Coding 3
Mode extension              : CM (complete main)
Format settings, Endianness : Big
Codec ID                    : A_AC3
Duration                    : 1h 4mn
Bit rate mode               : Constant
Bit rate                    : 384 Kbps
Channel(s)                  : 6 channels
Channel positions           : Front: L C R, Side: L R, LFE
Sampling rate               : 48.0 KHz
Bit depth                   : 16 bits
Compression mode            : Lossy
Stream size                 : 178 MiB (8%)
Title                       : English 5.1
Language                    : English
Default                     : No
Forced                      : NoText
ID                          : 4
Format                      : UTF-8
Codec ID                    : S_TEXT/UTF8
Codec ID/Info               : UTF-8 Plain Text
Title                       : Eng sub
Language                    : English
Default                     : No
Forced                      : No

Скриншот c названием фильма

Скриншоты

Яндекс.Метрика
Рейтинг@Mail.ru