Последние девушки / The Final Girls (2015) BDRip [H.264/1080p-LQ]

 

Создавать темы 18-Авг-2016 13:48

- Последние девушки / The Final Girls (2015) BDRip [H.264/1080p-LQ]- Производство: США / Studio Solutions, Groundswell Productions, Stage 6 Films
Жанр: ужасы, комедия-Режиссер: Тодд Штраус-Шульсон
Актеры: Таисса Фармига, Малин Акерман, Александр Людвиг, Нина Добрев, Алиа Шокат, Томас Миддлдитч, Адам Дивайн, Анджела Тримбур, Хлоя Бриджес, Тори Томпсон
Описание:
В центре событий — девушка, тяжело переживающая смерть матери, которая в 80-е была звёздой слэшеров. В годовщину её смерти по странному стечению обстоятельств Макс с друзьями оказывается в одном из этих фильмов. Теперь они вместе должны противостоять преследующему их маньяку.-Возраст: 18+ (зрителям, достигшим 18 лет. запрещено для детей)
Рейтинг MPAA: PG-13 (детям до 13 лет просмотр нежелателен)
Релиз от: StarCinema
Продолжительность: 01:31:20
Качество видео: BDRip (1080p-LQ) [thumb]https://www.sendspace.com/file/5bwub4[/thumb]
Перевод: Многоголосый закадровый (Лицензия BD CEE)
Видео: AVC/H.264, 1920x804 (2.40:1), ~6403 Kbps
Аудио: Русский, AC3, 6 ch, 448 Kbps, CBR

Mediainfo:

Общее
Уникальный идентификатор                 : 254315272241072043823292038757764904484 (0xBF5356FDF227F7EB86FB0FBD28953624)
Формат                                   : Matroska
Версия формата                           : Version 4 / Version 2
Размер файла                             : 4,37 Гбайт
Продолжительность                        : 1 ч. 31 м.
Общий поток                              : 6853 Кбит/сек
Дата кодирования                         : UTC 2016-01-17 10:25:15
Программа кодирования                    : mkvmerge v8.3.0 ('Over the Horizon') 64bit
Библиотека кодирования                   : libebml v1.3.1 + libmatroska v1.4.2
Видео
Идентификатор                            : 1
Формат                                   : AVC
Формат/Информация                        : Advanced Video Codec
Профиль формата                          : [url=mailto:[email protected]][email protected][/url]
Параметр CABAC формата                   : Да
Параметр ReFrames формата                : 5 кадров
Идентификатор кодека                     : V_MPEG4/ISO/AVC
Продолжительность                        : 1 ч. 31 м.
Битрейт                                  : 6403 Кбит/сек
Ширина                                   : 1920 пикселей
Высота                                   : 804 пикселя
Соотношение сторон                       : 2,40:1
Режим частоты кадров                     : Постоянный
Частота кадров                           : 23,976 (24000/1001) кадра/сек
Цветовое пространство                    : YUV
Субдискретизация насыщенности            : 4:2:0
Битовая глубина                          : 8 бит
Тип развёртки                            : Прогрессивная
Бит/(Пиксели*Кадры)                      : 0.173
Размер потока                            : 4,09 Гбайт (93%)
Заголовок                                : Последние девушки / The Final Girls [2015]
Библиотека кодирования                   : x264 core 146 r2538 121396c
Настройки программы                      : cabac=1 / ref=5 / deblock=1:-1:-1 / analyse=0x3:0x113 / me=umh / subme=11 / psy=1 / psy_rd=1.00:0.00 / mixed_ref=1 / me_range=40 / chroma_me=1 / trellis=2 / 8x8dct=1 / cqm=0 / deadzone=21,11 / fast_pskip=0 / chroma_qp_offset=-2 / threads=3 / lookahead_threads=1 / sliced_threads=0 / nr=0 / decimate=1 / interlaced=0 / bluray_compat=0 / constrained_intra=0 / bframes=8 / b_pyramid=2 / b_adapt=2 / b_bias=0 / direct=3 / weightb=1 / open_gop=0 / weightp=2 / keyint=250 / keyint_min=23 / scenecut=40 / intra_refresh=0 / rc_lookahead=60 / rc=2pass / mbtree=0 / bitrate=6403 / ratetol=1.0 / qcomp=0.60 / qpmin=0 / qpmax=69 / qpstep=4 / cplxblur=20.0 / qblur=0.5 / vbv_maxrate=14000 / vbv_bufsize=14000 / nal_hrd=none / filler=0 / ip_ratio=1.40 / pb_ratio=1.30 / aq=2:1.00
Язык                                     : English
Default                                  : Да
Forced                                   : Нет
Аудио
Идентификатор                            : 2
Формат                                   : AC-3
Формат/Информация                        : Audio Coding 3
Расширение режима                        : CM (complete main)
Параметр Endianness формата              : Big
Идентификатор кодека                     : A_AC3
Продолжительность                        : 1 ч. 31 м.
Вид битрейта                             : Постоянный
Битрейт                                  : 448 Кбит/сек
Каналы                                   : 6 каналов
Расположение каналов                     : Front: L C R, Side: L R, LFE
Частота                                  : 48,0 КГц
Частота кадров                           : 31,250 кадров/сек (1536 spf)
Метод сжатия                             : С потерями
Размер потока                            : 293 Мбайт (7%)
Заголовок                                : MVO [Лицензия]
Язык                                     : Russian
Default                                  : Да
Forced                                   : Нет
Скриншоты:
Яндекс.Метрика
Рейтинг@Mail.ru