Фантастическая четверка / Fantastic Four (2015) BDRip [H.265/1080p-LQ]

 

Создавать темы 18-Авг-2016 13:48

- Фантастическая четверка / Fantastic Four (2015) BDRip [H.265/1080p-LQ] - Производство: США / 20th Century Fox Film Corporation, Constantin Film, Marvel Entertainment
Жанр: Фантастика, Боевик, Приключения
Режиссер: Джош Транк
Актеры: Майлз Теллер, Майкл Б. Джордан, Кейт Мара, Джейми Белл, Тоби Кеббелл, Рег Э. Кэти, Тим Блейк Нельсон, Джошуа Монтес, Дэн Кастелланета, Оуэн Джадж
Описание:
История о четырех молодых астронавтах, которые отважились на авантюрное путешествие в параллельное измерение для исследования аномальной волны космической энергии. Вернувшись из путешествия, они обнаружили у себя суперспособности, которые навсегда изменили их жизни…
Возраст: 12+ (зрителям, достигшим 12 лет)
Рейтинг MPAA: PG-13 (детям до 13 лет просмотр нежелателен)
Релиз от: makspayn94
Продолжительность: 01:39:58
Качество видео: BDRip 1080p [thumb]http://multi-up.com/1104565[/thumb]
Перевод: Дублированный (лицензия)
Видео: HEVC/H.265, 1920x804, ~3699 Kbps
Аудио: AAC, 6 ch, 384 Kbps, CBR

Mediainfo:

Общее
Уникальный идентификатор                 : 254040009830851175128061078272965949830 (0xBF1E5381E15CA5C189DF8A8720013986)
Полное имя                               : D:\Кино и мультики\2015\Фантастическая четверка.mkv
Формат                                   : Matroska
Версия формата                           : Version 4 / Version 2
Размер файла                             : 2,85 Гбайт
Продолжительность                        : 1 ч. 39 м.
Общий поток                              : 4086 Кбит/сек
Дата кодирования                         : UTC 2016-06-05 13:39:23
Программа кодирования                    : mkvmerge v9.2.0 ('Photograph') 64bit
Библиотека кодирования                   : libebml v1.3.3 + libmatroska v1.4.4
Видео
Идентификатор                            : 1
Формат                                   : HEVC
Формат/Информация                        : High Efficiency Video Coding
Профиль формата                          : [email protected]@Main
Идентификатор кодека                     : V_MPEGH/ISO/HEVC
Продолжительность                        : 1 ч. 39 м.
Битрейт                                  : 3699 Кбит/сек
Ширина                                   : 1920 пикселей
Высота                                   : 804 пикселя
Соотношение сторон                       : 2,40:1
Режим частоты кадров                     : Постоянный
Частота кадров                           : 23,976 (24000/1001) кадра/сек
Цветовое пространство                    : YUV
Субдискретизация насыщенности            : 4:2:0
Битовая глубина                          : 8 бит
Бит/(Пиксели*Кадры)                      : 0.100
Размер потока                            : 2,58 Гбайт (91%)
Библиотека кодирования                   : x265 1.9+150-00ea3784bd36:[Windows][GCC 5.3.0][64 bit] 8bit
Настройки программы                      : wpp / ctu=64 / min-cu-size=8 / max-tu-size=32 / tu-intra-depth=1 / tu-inter-depth=1 / me=1 / subme=2 / merange=57 / no-rect / no-amp / max-merge=2 / temporal-mvp / no-early-skip / rdpenalty=0 / no-tskip / no-tskip-fast / strong-intra-smoothing / no-lossless / no-cu-lossless / no-constrained-intra / no-fast-intra / open-gop / no-temporal-layers / interlace=0 / keyint=230 / min-keyint=23 / scenecut=40 / rc-lookahead=20 / lookahead-slices=5 / bframes=4 / bframe-bias=0 / b-adapt=2 / ref=3 / limit-refs=3 / no-limit-modes / weightp / no-weightb / aq-mode=1 / qg-size=32 / aq-strength=1.00 / cbqpoffs=0 / crqpoffs=0 / rd=3 / psy-rd=2.00 / rdoq-level=0 / psy-rdoq=0.00 / no-rd-refine / signhide / deblock=-2:-2 / sao / no-sao-non-deblock / b-pyramid / cutree / no-intra-refresh / rc=2 / pass / bitrate=3701 / qcomp=0.60 / qpmin=0 / qpmax=51 / qpstep=4 / cplxblur=20.0 / qblur=0.5 / ipratio=1.40 / pbratio=1.30
Default                                  : Да
Forced                                   : Нет
Аудио
Идентификатор                            : 2
Формат                                   : AAC
Формат/Информация                        : Advanced Audio Codec
Профиль формата                          : LC
Идентификатор кодека                     : A_AAC
Продолжительность                        : 1 ч. 39 м.
Битрейт                                  : 384 Кбит/сек
Каналы                                   : 6 каналов
Расположение каналов                     : Front: L C R, Side: L R, LFE
Частота                                  : 48,0 КГц
Частота кадров                           : 46,875 кадров/сек (1024 spf)
Метод сжатия                             : С потерями
Размер потока                            : 275 Мбайт (9%)
Язык                                     : Russian
Default                                  : Да
Forced                                   : Нет
Скриншоты:
Яндекс.Метрика
Рейтинг@Mail.ru