[ Сегодня на трекере фрилич! Идет свободное скачивание без начисления Download ]

Герои зла / Los heroes del mal (2015) HDRip

 

Создавать темы 18-Авг-2016 13:48

-Герои зла / Los heroes del mal (2015) HDRip- Производство: Испания
Жанр: Драма
Режиссер: Соэ Берриатуа
Актеры: Хорхе Мартин Клементе, Макарена Гомес, Паула Сольдевила, Хавьер Манрике ...
Описание:
Трое подростков, промышляющих мелкими кражами, вдруг осознают, что могут использовать насилие, чтобы отомстить обществу. Их гнев направлен против тех, кто их унижал — одноклассников, учителей, просто неугодных людей. Вскоре становится известно, что один из троих убил проститутку и жаждет новой крови. Следующей жертвой может оказаться кто угодно. Перед остальными встаёт вопрос: должны ли они в свою очередь прибегнуть к насилию, чтобы остановить убийцу?
Дата мировой премьеры: 18 апреля 2015
Продолжительность: 01:34:51
Качество видео: HDRip http://multi-up.com/1085838
Перевод: Профессиональный многоголосый (Культура)
Субтитры: Отсутствуют
Видео: MPEG4, XviD, 720x304 (2.35:1), 25.000 fps, 1 606 Kbps (0.293 bit/pixel)
Аудио #1: AC-3, 48.0 KHz, 2 ch, 192 Kbps, CBR | Русский
Аудио #2: AC-3, 48.0 KHz, 6 ch, 384 Kbps, CBR | Испанский

MediaInfo:

Общее
Полное имя                               : C:\NNM\Герои зла\Geroi zla 2014 HDRip.avi
Формат                                   : AVI
Формат/Информация                        : Audio Video Interleave
Размер файла                             : 1,46 Гбайт
Продолжительность                        : 1 ч. 34 м.
Общий поток                              : 2196 Кбит/сек
Программа кодирования                    : VirtualDubMod 1.5.10.2 (build 2540/release)
Библиотека кодирования                   : VirtualDubMod build 2540/release
Видео
Идентификатор                            : 0
Формат                                   : MPEG-4 Visual
Профиль формата                          : Advanced [email protected]
Параметр BVOP формата                    : 1
Параметр QPel формата                    : Нет
Параметр GMC формата                     : Без точки перехода
Параметр матрицы формата                 : Выборочная
Идентификатор кодека                     : XVID
Идентификатор кодека/Подсказка           : XviD
Продолжительность                        : 1 ч. 34 м.
Битрейт                                  : 1606 Кбит/сек
Ширина                                   : 720 пикселей
Высота                                   : 304 пикселя
Соотношение сторон                       : 2,35:1
Частота кадров                           : 25,000 кадров/сек
Цветовое пространство                    : YUV
Субдискретизация насыщенности            : 4:2:0
Битовая глубина                          : 8 бит
Тип развёртки                            : Прогрессивная
Метод сжатия                             : С потерями
Бит/(Пиксели*Кадры)                      : 0.293
Размер потока                            : 1,06 Гбайт (73%)
Библиотека кодирования                   : XviD 65
Аудио #1
Идентификатор                            : 1
Формат                                   : AC-3
Формат/Информация                        : Audio Coding 3
Расширение режима                        : CM (complete main)
Идентификатор кодека                     : 2000
Продолжительность                        : 1 ч. 34 м.
Вид битрейта                             : Постоянный
Битрейт                                  : 192 Кбит/сек
Каналы                                   : 2 канала
Расположение каналов                     : Front: L R
Частота                                  : 48,0 КГц
Битовая глубина                          : 16 бит
Метод сжатия                             : С потерями
Размер потока                            : 130 Мбайт (9%)
Выравнивание                             : Разделение по промежуткам
Продолжительность промежутка             : 40  мс. (1,00 видеокадр)
Время предзагрузки промежутка            : 500  мс.
Заголовок                                : Профессиональный (многоголосый закадровый) Культура
Аудио #2
Идентификатор                            : 2
Формат                                   : AC-3
Формат/Информация                        : Audio Coding 3
Расширение режима                        : CM (complete main)
Идентификатор кодека                     : 2000
Продолжительность                        : 1 ч. 34 м.
Вид битрейта                             : Постоянный
Битрейт                                  : 384 Кбит/сек
Каналы                                   : 6 каналов
Расположение каналов                     : Front: L C R, Side: L R, LFE
Частота                                  : 48,0 КГц
Битовая глубина                          : 16 бит
Метод сжатия                             : С потерями
Размер потока                            : 261 Мбайт (17%)
Выравнивание                             : Разделение по промежуткам
Продолжительность промежутка             : 40  мс. (1,00 видеокадр)
Время предзагрузки промежутка            : 500  мс.
Заголовок                                : Испанский
Скриншоты:
Яндекс.Метрика
Рейтинг@Mail.ru