[ Сегодня на трекере фрилич! Идет свободное скачивание без начисления Download ]

Человек, который познал бесконечность / The Man Who Knew Infinity (2015) HDRip

 

Создавать темы 18-Авг-2016 13:48

-Человек, который познал бесконечность / The Man Who Knew Infinity (2015) HDRip- Производство: Великобритания
Жанр: Драма, биография, экранизация
Режиссер: Мэтт Браун
Актеры: Джереми Айронс, Дев Патель, Малкольм Синклер, Дхритиман Чаттерджи, Стивен Фрай, Арундатхи Наг, Девика Бисе, Падрейк Делани, Тоби Джонс
Описание: Сринивас Рамануджан жил с 1887-го по 1920 год. В основу сценария о его жизни, который написал Браун, легла одноименная книга Роберта Канигеля, выпущенная в 1991 году. В ней рассказывается о детстве, математическом становлении Рамануджана и совместной работе с профессором Кембриджского университета Годфри Харди.
[img]https://www.kinopoisk.ru/rating/841613.gif[/img]
Рейтинг MPAA: PG-13 (детям до 13 лет просмотр нежелателен)
Продолжительность: 01:47:49
Качество видео: HDRip
Перевод: Профессиональный многоголосый
Субтитры: Отсутствуют
Реклама: Имеется реклама от спонсора показа !
Видео: MPEG4, XviD, 720x304 (2.35:1), 23.976 fps, 1 734 Kbps (0.330 bit/pixel)
Аудио: AC-3, 48.0 KHz, 2 ch, 192 Kbps, CBR

MI

Общее
Полное имя : C:\NNM\Человек, который познал бесконечность\Chelovek, kotoryj poznal beskonechnostj 2015 HDRip.avi
Формат : AVI
Формат/Информация : Audio Video Interleave
Размер файла : 1,46 Гбайт
Продолжительность : 1 ч. 47 м.
Общий поток : 1935 Кбит/сек
Программа кодирования : VirtualDubMod 1.5.10.2 (build 2540/release)
Библиотека кодирования : VirtualDubMod build 2540/release
Видео
Идентификатор : 0
Формат : MPEG-4 Visual
Профиль формата : Advanced [email protected]
Параметр BVOP формата : 2
Параметр QPel формата : Нет
Параметр GMC формата : Без точки перехода
Параметр матрицы формата : Выборочная
Идентификатор кодека : XVID
Идентификатор кодека/Подсказка : XviD
Продолжительность : 1 ч. 47 м.
Битрейт : 1734 Кбит/сек
Ширина : 720 пикселей
Высота : 304 пикселя
Соотношение сторон : 2,35:1
Частота кадров : 23,976 (24000/1001) кадра/сек
Цветовое пространство : YUV
Субдискретизация насыщенности : 4:2:0
Битовая глубина : 8 бит
Тип развёртки : Прогрессивная
Метод сжатия : С потерями
Бит/(Пиксели*Кадры) : 0.330
Размер потока : 1,31 Гбайт (90%)
Библиотека кодирования : XviD 1.2.1 (UTC 2008-12-04)
Аудио
Идентификатор : 1
Формат : AC-3
Формат/Информация : Audio Coding 3
Расширение режима : CM (complete main)
Параметр Endianness формата : Big
Идентификатор кодека : 2000
Продолжительность : 1 ч. 47 м.
Вид битрейта : Постоянный
Битрейт : 192 Кбит/сек
Каналы : 2 канала
Расположение каналов : Front: L R
Частота : 48,0 КГц
Частота кадров : 31,250 кадров/сек (1536 spf)
Метод сжатия : С потерями
Размер потока : 148 Мбайт (10%)
Выравнивание : Разделение по промежуткам
Продолжительность промежутка : 42 мс. (1,00 видеокадр)
Время предзагрузки промежутка : 500 мс.
Скриншоты:
Яндекс.Метрика
Рейтинг@Mail.ru