[ Сегодня на трекере фрилич! Идет свободное скачивание без начисления Download ]

Солдаты фортуны (Солдаты в раю) / Men Of War (Перри Лэнг / Perry Lang) [1994 г., Боевик, драма, BDRip] AVO (А.Гаврилов, В.Горчаков) + original (Eng)

 

Создавать темы 03-Янв-2014 17:16

Солдаты фортуны (Солдаты в раю) / Men Of War
Год выпуска: 1994
Производство: США, Испания
Жанр: Боевик, драма
Продолжительность: 01:42:59
Перевод: Авторский (одноголосый, закадровый) А.Гаврилов
Перевод 2: Авторский (одноголосый, закадровый) В.Горчаков
Оригинальный аудиопоток: английский
Субтитры: отсутствуют
Режиссер: Перри Лэнг / Perry Lang
В ролях: Дольф Лундгрен, Шарлотта Льюис, Б.Д. Вонг, Энтони Джон Дэнисон, Тим Гини, Дон Харви, Том «Тайни» Листер мл., Том Райт, Катрин Белл, Тревор Годдар
Описание: Профессиональный наемник в компании пятерых таких же, как он, солдат удачи, высаживается на остров в Тихом океане, чтобы силой «убедить» его жителей подписать контракт на разработку минералов. Внезапно он осознает, что воюет не на той стороне и становится защитником тех, кого изначально должен был убить…

Качество видео: BDRip
Контейнер: AVI
Видео кодек: XviD
Аудио кодек: AC3
Видео: 720x400 (1.80:1), 23.976 fps, XviD build 50 ~2022 kbps avg, 0.29 bit/pixel
Аудио : 48 kHz, AC3 Dolby Digital, 2/0 (L,R) ch, ~192 kbps - А.Гаврилов
Аудио #2: 48 kHz, AC3 Dolby Digital, 2/0 (L,R) ch, ~192 kbps - В.Горчаков
Аудио #3: 48 kHz, AC3 Dolby Digital, 2/0 (L,R) ch, ~192 kbps - Оригинал

Доп. информация

BDRip свой. За исходник BD-R 25 и дорожки и за разрешение выложить спасибо Партизан(е180).
Цитата:
Большое спасибо foxlight'у за покупку оригинального диска. Все дорожки брал на рутрекере, большое спасибо релизерам.

Media Info

General
Complete name : D:\Films 2\Men Of War.1994 BDRip by DeASS.avi
Format : AVI
Format/Info : Audio Video Interleave
File size : 1.88 GiB
Duration : 1h 42mn
Overall bit rate : 2 619 Kbps
Movie name : Men Of War.1994 BDRip by DeASS
Director : DeASS
Genre : Action
Writing application : VirtualDubMod 1.5.10.3 (build 2550/release)
Original source form/Name : Movie
Copyright : 2014.01.03
Video
ID : 0
Format : MPEG-4 Visual
Format profile : Advanced [email protected]
Format settings, BVOP : 1
Format settings, QPel : No
Format settings, GMC : No warppoints
Format settings, Matrix : Default (MPEG)
Codec ID : XVID
Codec ID/Hint : XviD
Duration : 1h 42mn
Bit rate : 2 024 Kbps
Width : 720 pixels
Height : 400 pixels
Display aspect ratio : 16:9
Frame rate : 23.976 fps
Color space : YUV
Chroma subsampling : 4:2:0
Bit depth : 8 bits
Scan type : Progressive
Compression mode : Lossy
Bits/(Pixel*Frame) : 0.293
Stream size : 1.46 GiB (77%)
Writing library : XviD 1.2.1 (UTC 2008-12-04)
Audio #1
ID : 1
Format : AC-3
Format/Info : Audio Coding 3
Format profile : Dolby Digital
Mode extension : CM (complete main)
Format settings, Endianness : Big
Codec ID : 2000
Duration : 1h 42mn
Bit rate mode : Constant
Bit rate : 192 Kbps
Channel count : 2 channels
Channel positions : Front: L R
Sampling rate : 48.0 KHz
Bit depth : 16 bits
Compression mode : Lossy
Stream size : 141 MiB (7%)
Alignment : Split accross interleaves
Interleave, duration : 42 ms (1.00 video frame)
Interleave, preload duration : 500 ms
Audio #2
ID : 2
Format : AC-3
Format/Info : Audio Coding 3
Format profile : Dolby Digital
Mode extension : CM (complete main)
Format settings, Endianness : Big
Codec ID : 2000
Duration : 1h 42mn
Bit rate mode : Constant
Bit rate : 192 Kbps
Channel count : 2 channels
Channel positions : Front: L R
Sampling rate : 48.0 KHz
Bit depth : 16 bits
Compression mode : Lossy
Stream size : 141 MiB (7%)
Alignment : Split accross interleaves
Interleave, duration : 42 ms (1.00 video frame)
Interleave, preload duration : 500 ms
Audio #3
ID : 3
Format : AC-3
Format/Info : Audio Coding 3
Mode extension : CM (complete main)
Format settings, Endianness : Big
Codec ID : 2000
Duration : 1h 42mn
Bit rate mode : Constant
Bit rate : 192 Kbps
Channel count : 2 channels
Channel positions : Front: L R
Sampling rate : 48.0 KHz
Bit depth : 16 bits
Compression mode : Lossy
Stream size : 141 MiB (7%)
Alignment : Split accross interleaves
Interleave, duration : 42 ms (1.00 video frame)
Interleave, preload duration : 500 ms

Скриншоты

Яндекс.Метрика
Рейтинг@Mail.ru