[ Сегодня на трекере фрилич! Идет свободное скачивание без начисления Download ]

Без чувств / Senseless (Пенелопа Сфирис /Penelope Spheeris) [1998 г., Комедия, BDRip-AVC] AVO (П.Санаев) + Subs (Rus)

 

Создавать темы 15-Авг-2016 04:32

Без чувств / Senseless
«Суперсредство ... с побочными эффектами»
- Год выпуска: 1998
Мировая премьера: 20 февраля 1998
Производство: США
Жанр: Комедия
Продолжительность: 01:33:21
Перевод: Авторский (одноголосый) Павел Санаев
Субтитры: русскиеВ ролях:
Марлон Уэйнс / Marlon Wayans, Мэттью Лиллард / Matthew Lillard, Дэвид Спэйд / David Spade, Брэд Дуриф / Brad Dourif, Тамара Тэйлор / Tamara Taylor, Рип Торн / Rip Torn, Патрик Юинг / Patrick Ewing, Ричард МакГонэгл / Richard McGonagle, Эстер Скотт / Esther Scott, Кения Мур / Kenya Moore, Эрни Лайвли / Ernie Lively, Виселлос Шэннон / Vicellous Shannon, Майкл Уэзерред / Michael Weatherred, Дебра Джо Рапп / Debra Jo Rupp, Кен Лернер / Ken Lerner...Описание:
Бедный студент Дэррил Уизерспун трудится на четырех работах, но денег на оплату счетов всё равно не хватает. В надежде добыть еще немного средств Дэррил соглашается принять участие в сомнительном медицинском эксперименте. Молодой человек становится, чуть ли не супергероем, но неожиданно о себе дают знать странные побочные эффекты…
Качество: BDRip-AVC
Контейнер: MKV
Видео кодек: MPEG-4 AVC / h.264Видео: 1076x604p / 3321 kbps / 23.976 fps / 16:9 / High Profile 4.1
Аудио: 48 kHz, AC3 Dolby Digital, 2/0 (L,R) ch, ~256 kbps - Санаев

h.264 log

avs [info]: 1076x604p 1:1 @ 24000/1001 fps (cfr)
x264 [info]: using SAR=1/1
x264 [info]: using cpu capabilities: MMX2 SSE2Fast SSSE3 SSE4.2 AVX XOP FMA4 FMA3 LZCNT BMI1
x264 [info]: profile High, level 4.1
x264 [info]: cabac=1 ref=11 deblock=1:-3:-3 analyse=0x3:0x113 me=umh subme=11 psy=1 fade_compensate=0.00 psy_rd=1.05:0.20 mixed_ref=1 me_range=32 chroma_me=1 trellis=2 8x8dct=1 cqm=0 deadzone=21,11 fast_pskip=1 chroma_qp_offset=-3 threads=8 lookahead_threads=2 sliced_threads=0 nr=0 decimate=1 interlaced=0 bluray_compat=0 constrained_intra=0 fgo=0 bframes=11 b_pyramid=2 b_adapt=2 b_bias=0 direct=1 weightb=1 open_gop=0 weightp=2 keyint=250 keyint_min=23 scenecut=40 intra_refresh=0 rc_lookahead=40 rc=crf mbtree=0 crf=19.4000 qcomp=0.60 qpmin=0 qpmax=69 qpstep=4 vbv_maxrate=50000 vbv_bufsize=62500 crf_max=0.0 nal_hrd=none filler=0 ip_ratio=1.48 pb_ratio=1.30 aq=3:1.00
x264 [info]: frame I:1331 Avg QP:18.56 size: 87519
x264 [info]: frame P:27964 Avg QP:19.98 size: 34690
x264 [info]: frame B:105012 Avg QP:21.90 size: 11802
x264 [info]: consecutive B-frames: 2.0% 1.8% 6.4% 16.3% 22.2% 44.7% 4.1% 1.0% 0.7% 0.4% 0.3% 0.2%
x264 [info]: mb I I16..4: 7.4% 75.0% 17.6%
x264 [info]: mb P I16..4: 0.5% 15.4% 1.8% P16..4: 30.8% 36.3% 12.4% 0.0% 0.0% skip: 2.7%
x264 [info]: mb B I16..4: 0.1% 1.4% 0.2% B16..8: 40.7% 21.9% 3.0% direct: 5.7% skip:27.2% L0:41.5% L1:42.9% BI:15.6%
x264 [info]: 8x8 transform intra:84.5% inter:54.3%
x264 [info]: coded y,uvDC,uvAC intra: 96.1% 76.6% 40.9% inter: 29.5% 15.3% 0.7%
x264 [info]: i16 v,h,dc,p: 33% 7% 11% 49%
x264 [info]: i8 v,h,dc,ddl,ddr,vr,hd,vl,hu: 10% 9% 9% 10% 13% 13% 12% 12% 13%
x264 [info]: i4 v,h,dc,ddl,ddr,vr,hd,vl,hu: 15% 17% 3% 7% 13% 13% 11% 10% 11%
x264 [info]: i8c dc,h,v,p: 32% 29% 21% 18%
x264 [info]: Weighted P-Frames: Y:9.2% UV:2.5%
x264 [info]: ref P L0: 41.1% 12.1% 18.3% 6.5% 6.3% 4.1% 4.1% 2.0% 2.1% 1.6% 1.8% 0.2% 0.0%
x264 [info]: ref B L0: 79.4% 8.7% 4.2% 2.3% 1.6% 1.4% 1.1% 0.7% 0.4% 0.2%
x264 [info]: ref B L1: 96.6% 3.4%
x264 [info]: kb/s:3321.65

Media Info

Формат : Matroska
Версия формата : Version 4 / Version 2
Размер файла : 2,33 Гбайт
Продолжительность : 1 ч. 33 м.
Общий поток : 3580 Кбит/сек
Название фильма : Senseless.1998.BDRip-AVC.Sanaev.Subs -=anton966=-
Дата кодирования : UTC 2016-08-11 08:39:30
Программа кодирования : mkvmerge v8.3.0 ('Over the Horizon') 64bit
Библиотека кодирования : libebml v1.3.1 + libmatroska v1.4.2Видео
Идентификатор : 1
Формат : AVC
Формат/Информация : Advanced Video Codec
Профиль формата : [email protected]/* */
Параметр CABAC формата : Да
Параметр ReFrames формата : 11 кадров
Идентификатор кодека : V_MPEG4/ISO/AVC
Продолжительность : 1 ч. 33 м.
Битрейт : 3322 Кбит/сек
Ширина : 1076 пикселей
Высота : 604 пикселя
Соотношение сторон : 16:9
Режим частоты кадров : Постоянный
Частота кадров : 23,976 (24000/1001) кадра/сек
Цветовое пространство : YUV
Субдискретизация насыщенности : 4:2:0
Битовая глубина : 8 бит
Тип развёртки : Прогрессивная
Бит/(Пиксели*Кадры) : 0.213
Размер потока : 2,17 Гбайт (93%)
Заголовок : Senseless.1998.BDRip-AVC
Библиотека кодирования : x264 core 148 r2705kMod 3f5ed56
Настройки программы : cabac=1 / ref=11 / deblock=1:-3:-3 / analyse=0x3:0x113 / me=umh / subme=11 / psy=1 / fade_compensate=0.00 / psy_rd=1.05:0.20 / mixed_ref=1 / me_range=32 / chroma_me=1 / trellis=2 / 8x8dct=1 / cqm=0 / deadzone=21,11 / fast_pskip=1 / chroma_qp_offset=-3 / threads=8 / lookahead_threads=2 / sliced_threads=0 / nr=0 / decimate=1 / interlaced=0 / bluray_compat=0 / constrained_intra=0 / fgo=0 / bframes=11 / b_pyramid=2 / b_adapt=2 / b_bias=0 / direct=1 / weightb=1 / open_gop=0 / weightp=2 / keyint=250 / keyint_min=23 / scenecut=40 / intra_refresh=0 / rc_lookahead=40 / rc=crf / mbtree=0 / crf=19.4000 / qcomp=0.60 / qpmin=0 / qpmax=69 / qpstep=4 / vbv_maxrate=50000 / vbv_bufsize=62500 / crf_max=0.0 / nal_hrd=none / filler=0 / ip_ratio=1.48 / pb_ratio=1.30 / aq=3:1.00
Язык : English
Default : Да
Forced : Нет
Цветовой диапазон : Limited
Основные цвета : BT.709
Характеристики трансфера : BT.709
Коэффициенты матрицы : BT.709Аудио
Идентификатор : 2
Формат : AC-3
Формат/Информация : Audio Coding 3
Профиль формата : Dolby Digital
Расширение режима : CM (complete main)
Параметр Endianness формата : Big
Идентификатор кодека : A_AC3
Продолжительность : 1 ч. 33 м.
Вид битрейта : Постоянный
Битрейт : 256 Кбит/сек
Каналы : 2 канала
Расположение каналов : Front: L R
Частота : 48,0 КГц
Частота кадров : 31,250 кадров/сек (1536 spf)
Метод сжатия : С потерями
Размер потока : 171 Мбайт (7%)
Заголовок : Sanaev
Язык : Russian
Default : Да
Forced : НетТекст
Идентификатор : 3
Формат : UTF-8
Идентификатор кодека : S_TEXT/UTF8
Идентификатор кодека/Информация : UTF-8 Plain Text
Продолжительность : 1 ч. 28 м.
Битрейт : 130 бит/сек
Count of elements : 1015
Размер потока : 84,4 Кбайт (0%)
Язык : Russian
Default : Нет
Forced : НетМеню
00:00:00.000 : en:
00:07:17.103 : en:
00:15:28.677 : en:
00:23:51.555 : en:
00:31:14.205 : en:
00:39:52.640 : en:
00:48:58.060 : en:
00:56:55.078 : en:
01:03:44.570 : en:
01:12:19.667 : en:
01:19:29.222 : en:
01:27:13.895 : en:

Скриншоты

Яндекс.Метрика
Рейтинг@Mail.ru