Volbeat - Live At Rock Am Ring [2016 г.] (Heavy Metal, Hard Rock) [TVRip, 720p]

 

Создавать темы 15-Авг-2016 04:25

-Volbeat - Live At Rock Am Ring-- Год выпуска: 2016 г.
Страна: Copenhagen, Denmark
Жанр: Heavy Metal, Hard Rock
Продолжительность: 00:19:38-Качество видео: TVRip
Контейнер: MKV
Стандарт разрешения: 720p
Видео кодек: MPEG4 AVC
Аудио кодек: AC3
Видео: : 1 272 pixels x 704 pixels : 10.3 Mbps : 50.000 fps :
Аудио: : 448 Kbps : 2 channels : 48.0 KHz :-

Трэклист

1. Devil's Bleeding Crown
2. For Evigt
3. Doc Holliday
4. Seal The Deal
-

Media Info

General
UniqueID : 197492399431969567634295490262213351080 (0x9493A70FD7BFCD41B326E9A354D856A8)
Complete name : H:\Volbeat - Rock Am Ring - (2016)-720p-x264-2016\volbeat-rock_am_ring_(2016)-720p-x264-2016.mkv
Format : Matroska
File size : 1.51 GiB
Duration : 19mn 38s
Overall bit rate : 11.0 Mbps
Encoded date : UTC 2016-08-10 11:47:53
Writing application : mkvmerge v9.2.0 ('Photograph') 64bit
Writing library : libebml v1.3.3 + libmatroska v1.4.4Video
ID : 1
Format : AVC
Format/Info : Advanced Video Codec
Format profile : [email protected]/* */
Format settings, CABAC : Yes
Format settings, ReFrames : 5 frames
Codec ID : V_MPEG4/ISO/AVC
Duration : 19mn 38s
Bit rate : 10.3 Mbps
Width : 1 272 pixels
Height : 704 pixels
Display aspect ratio : 16:9
Frame rate : 50.000 fps
Color space : YUV
Chroma subsampling : 4:2:0
Bit depth : 8 bits
Scan type : Progressive
Bits/(Pixel*Frame) : 0.231
Stream size : 1.42 GiB (94%)
Writing library : x264 core 148 r2705 3f5ed56
Encoding settings : cabac=1 / ref=5 / deblock=1:-1:-1 / analyse=0x3:0x133 / me=umh / subme=9 / psy=1 / psy_rd=1.00:0.00 / mixed_ref=1 / me_range=24 / chroma_me=1 / trellis=1 / 8x8dct=1 / cqm=0 / deadzone=21,11 / fast_pskip=0 / chroma_qp_offset=-2 / threads=12 / lookahead_threads=3 / sliced_threads=0 / nr=0 / decimate=1 / interlaced=0 / bluray_compat=0 / constrained_intra=0 / bframes=16 / b_pyramid=2 / b_adapt=2 / b_bias=0 / direct=3 / weightb=1 / open_gop=0 / weightp=2 / keyint=500 / keyint_min=50 / scenecut=40 / intra_refresh=0 / rc_lookahead=60 / rc=crf / mbtree=1 / crf=17.0 / qcomp=0.60 / qpmin=0 / qpmax=69 / qpstep=4 / ip_ratio=1.40 / aq=1:1.00
Language : EnglishAudio
ID : 2
Format : AC-3
Format/Info : Audio Coding 3
Mode extension : CM (complete main)
Codec ID : A_AC3
Duration : 19mn 38s
Bit rate mode : Constant
Bit rate : 448 Kbps
Channel(s) : 2 channels
Channel positions : Front: L R
Sampling rate : 48.0 KHz
Bit depth : 16 bits
Compression mode : Lossy
Stream size : 62.9 MiB (4%)Menu
00:00:00.000 : :Devil's Bleeding Crown
00:04:40.000 : :For Evigt
00:09:39.000 : :Doc Holiday
00:15:09.000 : :Seal The Deal
-

Скриншоты

--
Яндекс.Метрика
Рейтинг@Mail.ru