Rammstein - Hellfest Open Air - Ramm 4 [2016 г.] (Neue Deutsche Härte, Industrial Metal, Heavy Metal) [TVRip, 720p]

 

Создавать темы 15-Авг-2016 04:23

-Rammstein - Hellfest Open Air - Ramm 4-- Год выпуска: 2016 г.
Страна: Berlin, Germany
Жанр: Neue Deutsche Härte, Industrial Metal, Heavy Metal
Продолжительность: 00:06:53-Качество видео: TVRip
Контейнер: MKV
Стандарт разрешения: 720p
Видео кодек: MPEG4 AVC
Аудио кодек: AC3
Видео: : 1 272 pixels x 720 pixels : 8 365 Kbps : 50.000 fps :
Аудио: : 448 Kbps : 6 channels - Front: L C R, Side: L R, LFE : 48.0 KHz :-

Media Info

General
UniqueID : 231502208089664600212237392759547674829 (0xAE29B416F2CB3E24955870E3A6E6C0CD)
Complete name : G:\Rammstein-Hellfest_Open_Air_(2016)-DE-720p-x264-2016-SRP\01-rammstein-ramm_4.mkv
Format : Matroska
File size : 443 MiB
Duration : 6mn 53s
Overall bit rate : 8 992 Kbps
Encoded date : UTC 2016-08-08 14:43:09
Writing application : mkvmerge v9.2.0 ('Photograph') 64bit
Writing library : libebml v1.3.3 + libmatroska v1.4.4Video
ID : 1
Format : AVC
Format/Info : Advanced Video Codec
Format profile : [email protected]/* */
Format settings, CABAC : Yes
Format settings, ReFrames : 5 frames
Codec ID : V_MPEG4/ISO/AVC
Duration : 6mn 53s
Bit rate : 8 365 Kbps
Width : 1 272 pixels
Height : 720 pixels
Display aspect ratio : 16:9
Frame rate : 50.000 fps
Color space : YUV
Chroma subsampling : 4:2:0
Bit depth : 8 bits
Scan type : Progressive
Bits/(Pixel*Frame) : 0.183
Stream size : 412 MiB (93%)
Writing library : x264 core 148 r2705 3f5ed56
Encoding settings : cabac=1 / ref=5 / deblock=1:-1:-1 / analyse=0x3:0x133 / me=umh / subme=9 / psy=1 / psy_rd=1.00:0.00 / mixed_ref=1 / me_range=24 / chroma_me=1 / trellis=1 / 8x8dct=1 / cqm=0 / deadzone=21,11 / fast_pskip=0 / chroma_qp_offset=-2 / threads=12 / lookahead_threads=3 / sliced_threads=0 / nr=0 / decimate=1 / interlaced=0 / bluray_compat=0 / constrained_intra=0 / bframes=16 / b_pyramid=2 / b_adapt=2 / b_bias=0 / direct=3 / weightb=1 / open_gop=0 / weightp=2 / keyint=500 / keyint_min=50 / scenecut=40 / intra_refresh=0 / rc_lookahead=60 / rc=crf / mbtree=1 / crf=16.0 / qcomp=0.60 / qpmin=0 / qpmax=69 / qpstep=4 / ip_ratio=1.40 / aq=1:1.00
Language : EnglishAudio
ID : 2
Format : AC-3
Format/Info : Audio Coding 3
Mode extension : CM (complete main)
Codec ID : A_AC3
Duration : 6mn 53s
Bit rate mode : Constant
Bit rate : 448 Kbps
Channel(s) : 6 channels
Channel positions : Front: L C R, Side: L R, LFE
Sampling rate : 48.0 KHz
Bit depth : 16 bits
Compression mode : Lossy
Stream size : 22.1 MiB (5%)
-

Скриншоты

--
Яндекс.Метрика
Рейтинг@Mail.ru