Within Temptation - Hellfest Open Air - Paradise (What About Us) [2016 г.] (Symphonic Metal, Symphonic Rock, Gothic Metal) [HDTVRip, 720p]

 

Создавать темы 15-Авг-2016 04:18

-Within Temptation - Hellfest Open Air - Paradise (What About Us)-- Год выпуска: 2016 г.
Страна: Waddinxveen, Netherlands
Жанр: Symphonic Metal, Symphonic Rock, Gothic Metal, Alternative Metal, Celtic Metal
Продолжительность: 00:03:45-Качество видео: HDTVRip
Контейнер: MKV
Стандарт разрешения: 720p
Видео кодек: MPEG4 AVC
Аудио кодек: AC3
Видео: : 1 272 pixels x 720 pixels : 10.2 Mbps : 50.000 fps :
Аудио: : 448 Kbps : 6 channels - Front: L C R, Side: L R, LFE : 48.0 KHz :-

Media Info

General
UniqueID : 194556805026739485304068922805764580645 (0x925E471548EA576194FB07BD59656525)
Complete name : H:\within_temptation-paradise_(what_about_us).mkv
Format : Matroska
File size : 293 MiB
Duration : 3mn 45s
Overall bit rate : 10.9 Mbps
Encoded date : UTC 2016-08-09 15:23:21
Writing application : mkvmerge v9.2.0 ('Photograph') 64bit
Writing library : libebml v1.3.3 + libmatroska v1.4.4Video
ID : 1
Format : AVC
Format/Info : Advanced Video Codec
Format profile : [email protected]/* */
Format settings, CABAC : Yes
Format settings, ReFrames : 5 frames
Codec ID : V_MPEG4/ISO/AVC
Duration : 3mn 45s
Bit rate : 10.2 Mbps
Width : 1 272 pixels
Height : 720 pixels
Display aspect ratio : 16:9
Frame rate : 50.000 fps
Color space : YUV
Chroma subsampling : 4:2:0
Bit depth : 8 bits
Scan type : Progressive
Bits/(Pixel*Frame) : 0.224
Stream size : 275 MiB (94%)
Writing library : x264 core 148 r2705 3f5ed56
Encoding settings : cabac=1 / ref=5 / deblock=1:-1:-1 / analyse=0x3:0x133 / me=umh / subme=9 / psy=1 / psy_rd=1.00:0.00 / mixed_ref=1 / me_range=24 / chroma_me=1 / trellis=1 / 8x8dct=1 / cqm=0 / deadzone=21,11 / fast_pskip=0 / chroma_qp_offset=-2 / threads=12 / lookahead_threads=3 / sliced_threads=0 / nr=0 / decimate=1 / interlaced=0 / bluray_compat=0 / constrained_intra=0 / bframes=16 / b_pyramid=2 / b_adapt=2 / b_bias=0 / direct=3 / weightb=1 / open_gop=0 / weightp=2 / keyint=500 / keyint_min=50 / scenecut=40 / intra_refresh=0 / rc_lookahead=60 / rc=crf / mbtree=1 / crf=20.0 / qcomp=0.60 / qpmin=0 / qpmax=69 / qpstep=4 / ip_ratio=1.40 / aq=1:1.00
Language : EnglishAudio
ID : 2
Format : AC-3
Format/Info : Audio Coding 3
Mode extension : CM (complete main)
Codec ID : A_AC3
Duration : 3mn 45s
Bit rate mode : Constant
Bit rate : 448 Kbps
Channel(s) : 6 channels
Channel positions : Front: L C R, Side: L R, LFE
Sampling rate : 48.0 KHz
Bit depth : 16 bits
Compression mode : Lossy
Video delay : 6ms
Stream size : 12.0 MiB (4%)
-

Скриншоты

--
Яндекс.Метрика
Рейтинг@Mail.ru