[ Сегодня на трекере фрилич! Идет свободное скачивание без начисления Download ]

Финансовый монстр / Money Monster (Джоди Фостер / Jodie Foster) [2016 г., триллер, драма, криминал, HDRip] Dub

 

Создавать темы 12-Авг-2016 03:53

-Финансовый монстр / Money Monster-- Производство: США / Allegiance Theater, LStar Capital, Smoke House, TriStar Pictures
Год выпуска: 2016 г.
Жанр: триллер, драма, криминал
Продолжительность: 01:38:16Мировая премьера: 12 мая 2016
Российская премьера: 2 июня 2016, «WDSSPR»
Перевод: Профессиональный (полное дублирование) [Чистый звук]-Режиссер: Джоди Фостер / Jodie Foster-В ролях: Джордж Клуни, Джулия Робертс, Джек О'Коннелл, Доминик Уэст, Катрина Балф, Джанкарло Эспозито, Кристофер Денэм, Ленни Венито, Кристофер Бауэр, Дэннис Буцикарис-Описание: Во время трансляции рейтингового реалити-шоу «Финансовый монстр» в студию врывается неизвестный и берет ведущего в заложники. Несмотря на чрезвычайную ситуацию, программа не прерывается – ведь шоу должно продолжаться! Постепенно то, что начиналось как мрачная драма, превращается в самый успешный и скандальный выпуск реалити-шоу за всю его историю.- -Качество видео: HDRip
Контейнер: AVI
Видео кодек: XviD
Аудио кодек: AC3
Видео: 720x304 (2.37:1), 23.976 fps, XviD build 50 ~1729 kbps avg, 0.33 bit/pixel
Аудио: 48 kHz, AC3 Dolby Digital, 2/0 (L,R) ch, ~384 kbps
Cубтитры: отсутствуют

Media Info

Money.Monster.2016.D.HDRip.14OOMB.avi
Format : AVI
Format/Info : Audio Video Interleave
File size : 1.46 GiB
Duration : 1 h 38 min
Overall bit rate : 2 123 kb/s
Writing application : VirtualDubMod 1.5.10.2 (build 2540/release)
Writing library : VirtualDubMod build 2540/releaseVideo
ID : 0
Format : MPEG-4 Visual
Format profile : Advanced [email protected]/* */
Format settings, BVOP : 2
Format settings, QPel : No
Format settings, GMC : No warppoints
Format settings, Matrix : Custom
Codec ID : XVID
Codec ID/Hint : XviD
Duration : 1 h 38 min
Bit rate : 1 730 kb/s
Width : 720 pixels
Height : 304 pixels
Display aspect ratio : 2.35:1
Frame rate : 23.976 (24000/1001) FPS
Color space : YUV
Chroma subsampling : 4:2:0
Bit depth : 8 bits
Scan type : Progressive
Compression mode : Lossy
Bits/(Pixel*Frame) : 0.330
Stream size : 1.19 GiB (81%)
Writing library : XviD 1.2.1 (UTC 2008-12-04)Audio
ID : 1
Format : AC-3
Format/Info : Audio Coding 3
Mode extension : CM (complete main)
Format settings, Endianness : Big
Codec ID : 2000
Duration : 1 h 38 min
Bit rate mode : Constant
Bit rate : 384 kb/s
Channel(s) : 2 channels
Channel positions : Front: L R
Sampling rate : 48.0 kHz
Frame rate : 31.250 FPS (1536 spf)
Compression mode : Lossy
Stream size : 270 MiB (18%)
Alignment : Split accross interleaves
Interleave, duration : 42 ms (1.00 video frame)
Interleave, preload duration : 500 ms

Скриншоты

Яндекс.Метрика
Рейтинг@Mail.ru