[ Сегодня на трекере фрилич! Идет свободное скачивание без начисления Download ]

Мадемуазель Мушкетер / La Femme Musketeer / The Lady Musketeer (Стив Бойум / Steve Boyum) [2003 г., боевик, приключения, BDRip-AVC, 720p] MVO (русск.) + MVO (укр.) + Sub (Rus)

 

Создавать темы 12-Авг-2016 03:49

-Мадемуазель Мушкетер / La Femme Musketeer / The Lady Musketeer-- Производство: Хорватия, Германия, США, Drotcroft Limited, Hallmark Entertainment, Larry Levinson Productions, RTL, Silverstar Limited Production, ...
Год выпуска: 2003 г.
Жанр: боевик, приключения
Продолжительность: 02:54:28Мировая премьера: 20 июля 2004
Российская премьера: 18 февраля 2015
Дата выхода DVD: 29 апреля 2010, «Вольга»
Перевод: Профессиональный (многоголосый, закадровый) [«Екатеринбург Арт»]
Перевод 2: Профессиональный (многоголосый, закадровый) [украинский]
Режиссер: Стив Бойум / Steve Boyum-В ролях: Жерар Депардьё, Майкл Йорк, Настасья Кински, Сьюзи Эми, Джон Рис-Дэвис, Каспар Зафер, Аллан Кордьюнер, Маркус Дж. Пирэ, Клеменси Бёртон-Хилл, Фредди Сэйерс, Дэвид Эткинсон, Кристофер Кейзнов, Кэти Эшворт, Ник Бримбл, Сьюзэн Браун, Патрис Колс, Майкл Калкин, Зринка Цвитешич, Николас Айронс, Кристина Крепела, Эндрю Масселмен, Андрес Уильямс-Описание: 1660 год. Францию раздирает борьба между королем и кардиналом, у каждого из которого имеется собственная армия. У кардинала — гвардейцы, у короля — мушкетеры.И самый знаменитый из них — д’Артаньян, обучивший всему, что умеет, свою единственную дочь Валентину. И хотя она мечтает вступить в ряды мушкетеров, женщины не имеют права служить в армии.Но, узнав о похищении невесты короля и готовящемся перевороте, Валентина вместе с сыновьями Атоса, Портоса и Арамиса отправляется спасать Францию…-
Качество видео: BDRip-AVC
Контейнер: MKV
Стандарт разрешения: 720p
Видео кодек: MPEG4 AVC
Аудио кодек: AC3
Видео: MPEG-4 AVC, 4579 Кбит/с, 1280х720, 23.976 кадр/с
Аудио: AC3, 6 ch, 448 Кбит/с, 48,0 КГц
Аудио #2: AC3, 6 ch, 448 Кбит/с, 48,0 КГц
Cубтитры: русские
Формат субтитров: softsub (SRT)
Доп. информация о субтитрах: включаемые

Рецензия

Женщина мушкетёр.Пересмотрела все фильмы про трёх мушкетеров, начиная с голливудской ленты 1943 года! Но более удачной картиной по роману Дюма считаю фильм с Чарли Шином!А фильм Мадемуазель Мушкетер хорошим продолжением, потому что образы зрелого поколения «Великолепной четвёрки идеально совпадают с тем фильмом.Валентина — истинная дочь своего отца: бойкая, смелая, красивая, такая как она может дать фору любому мужчине!Хороший сюжет, если учесть, что для того времени второй половине 17 века женщина готовая пойти на войну и сражаться на ровне с мужчинами — это открытие!Отличный актерский состав: каждый актер сумел раскрыть характер своего героя.10 из 10

Media Info

Общее
Уникальный идентификатор : 244218973527770970538091088411816096320 (0xB7BADD0877DD3DD29F13C6F1F9DBF240)
Полное имя : J:\Мадемуазель мушкетер\La Femme Musketeer.2003.BDRip.720p.[pirat.ca]\La.Femme.Musketeer.[E01].2003.BDRip-AVC.720p.[pirat.ca].mkv
Формат : Matroska
Версия формата : Version 2
Размер файла : 3,37 Гбайт
Продолжительность : 1 ч. 27 м.
Общий поток : 5477 Кбит/сек
Название фильма : La Femme Musketeer [E01] (2003)
Дата кодирования : UTC 2016-08-11 13:19:37
Программа кодирования : mkvmerge v5.3.0 ('I could have danced') built on Feb 9 2012 10:38:07
Библиотека кодирования : libebml v1.2.3 + libmatroska v1.3.0Видео
Идентификатор : 1
Формат : AVC
Формат/Информация : Advanced Video Codec
Профиль формата : [email protected]/* */
Параметр CABAC формата : Да
Параметр ReFrames формата : 9 кадров
Идентификатор кодека : V_MPEG4/ISO/AVC
Продолжительность : 1 ч. 27 м.
Битрейт : 4579 Кбит/сек
Ширина : 1280 пикселей
Высота : 720 пикселей
Соотношение сторон : 16:9
Режим частоты кадров : Постоянный
Частота кадров : 23,976 (24000/1001) кадра/сек
Цветовое пространство : YUV
Субдискретизация насыщенности : 4:2:0
Битовая глубина : 8 бит
Тип развёртки : Прогрессивная
Бит/(Пиксели*Кадры) : 0.207
Размер потока : 2,75 Гбайт (82%)
Заголовок : La Femme Musketeer [E01] (2003)
Библиотека кодирования : x264 core 148 r2638 7599210
Настройки программы : cabac=1 / ref=9 / deblock=1:-3:-3 / analyse=0x3:0x133 / me=umh / subme=11 / psy=1 / psy_rd=1.00:0.00 / mixed_ref=1 / me_range=32 / chroma_me=1 / trellis=2 / 8x8dct=1 / cqm=0 / deadzone=21,11 / fast_pskip=1 / chroma_qp_offset=-2 / threads=6 / lookahead_threads=1 / sliced_threads=0 / nr=0 / decimate=1 / interlaced=0 / bluray_compat=0 / constrained_intra=0 / bframes=5 / b_pyramid=2 / b_adapt=2 / b_bias=0 / direct=3 / weightb=1 / open_gop=0 / weightp=2 / keyint=240 / keyint_min=23 / scenecut=40 / intra_refresh=0 / rc_lookahead=60 / rc=2pass / mbtree=1 / bitrate=4579 / ratetol=1.0 / qcomp=0.60 / qpmin=0 / qpmax=69 / qpstep=4 / cplxblur=20.0 / qblur=0.5 / vbv_maxrate=50000 / vbv_bufsize=62500 / nal_hrd=none / filler=0 / ip_ratio=1.40 / aq=1:1.00
Язык : English
Default : Да
Forced : НетАудио #1
Идентификатор : 2
Формат : AC-3
Формат/Информация : Audio Coding 3
Расширение режима : CM (complete main)
Параметр Endianness формата : Big
Идентификатор кодека : A_AC3
Продолжительность : 1 ч. 27 м.
Вид битрейта : Постоянный
Битрейт : 448 Кбит/сек
Каналы : 6 каналов
Расположение каналов : Front: L C R, Side: L R, LFE
Частота : 48,0 КГц
Частота кадров : 31,250 кадров/сек (1536 spf)
Метод сжатия : С потерями
Размер потока : 282 Мбайт (8%)
Заголовок : AC3, 6 ch, 448 Kbps, MVO
Язык : Russian
Default : Да
Forced : НетАудио #2
Идентификатор : 3
Формат : AC-3
Формат/Информация : Audio Coding 3
Расширение режима : CM (complete main)
Параметр Endianness формата : Big
Идентификатор кодека : A_AC3
Продолжительность : 1 ч. 27 м.
Вид битрейта : Постоянный
Битрейт : 448 Кбит/сек
Каналы : 6 каналов
Расположение каналов : Front: L C R, Side: L R, LFE
Частота : 48,0 КГц
Частота кадров : 31,250 кадров/сек (1536 spf)
Метод сжатия : С потерями
Размер потока : 282 Мбайт (8%)
Заголовок : AC3, 6 ch, 448 Kbps, Українська
Язык : Ukrainian
Default : Нет
Forced : НетТекст
Идентификатор : 4
Формат : UTF-8
Идентификатор кодека : S_TEXT/UTF8
Идентификатор кодека/Информация : UTF-8 Plain Text
Язык : Russian
Default : Нет
Forced : НетМеню
00:00:00.000 : en:Chapter 1
00:03:29.400 : en:Chapter 2
00:11:39.000 : en:Chapter 3
00:19:46.800 : en:Chapter 4
00:21:11.400 : en:Chapter 5
00:35:24.000 : en:Chapter 6
00:53:56.400 : en:Chapter 7
01:15:41.400 : en:Chapter 8
01:26:03.200 : en:Chapter 9

Скриншот c названием фильма

Скриншоты

-Трейлер
Яндекс.Метрика
Рейтинг@Mail.ru