Мудрость крокодилов / The Wisdom of Crocodiles / Immortality (По-Чин Леонг / Po-Chih Leong) [1998 г., триллер, мелодрама, криминал, детектив, DVDRip] MVO [Пирамида]

 

Создавать темы 12-Авг-2016 03:42

-Мудрость крокодилов / The Wisdom of Crocodiles / Immortality-- Производство: Великобритания, Arts Council of England, Entertainment Film Distributors Ltd., Film Foundry Partners, Goldwyn Films, Zenith Entertainment, ...
Год выпуска: 1998 г.
Жанр: триллер, мелодрама, криминал, детектив
Продолжительность: 01:34:52Мировая премьера: 27 ноября 1998
Дата выхода DVD: 25 февраля 2010, «New Dream media»
Перевод: Профессиональный (многоголосый, закадровый) [Пирамида]
Режиссер: По-Чин Леонг / Po-Chih Leong-В ролях: Джуд Лоу, Элина Лёвензон, Тимоти Сполл, Джек Девенпорт, Колин Сэлмон, Гитлер Вонг, Керри Фокс-Описание: Загадочному и неотразимому Стивену нужна кровь молодых женщин, чтобы жить. В ней он ищет сущность любви, без этого ингредиента он обречен на медленную гибель.Он — современный вампир в бесконечных поисках своей единственной возлюбленной. Юные красавицы бессильны перед его чарами, но Стивену нужна та, кто будет любить его беззаветно и страстно.Когда в жизни Стивена появляется Анна, его чувства впервые находят ответ в ее трепетном сердце, но Анна еще не знает, что своим избранницам в обмен на любовь Стивен может предложить лишь жестокую смерть…-
Качество видео: DVDRip
Контейнер: AVI
Видео кодек: XviD
Аудио кодек: AC3
Видео: 704x528 (1.33:1), 25 fps, XviD build 73 ~1861 kbps avg, 0.20 bit/pixel
Аудио: 48 kHz, AC3 Dolby Digital, 2/0 (L,R) ch, ~192 kbps
Cубтитры: отсутствуют

Доп. информация

Поэма любви, произносимая Стивеном на протяжении фильма, является песней любви, взятой от Библии, — «песня Соломона».

Рецензия

Агония при попытке удержатьсяВ этом фильме я узрела нечто большее, чем просто фильм о вампире или фильм о любви.Запоминаются слова главного героя, которые мы слышим в начале фильма и в конце. Главную идею (если это можно назвать идеей), по моему мнению, выражают именно эти слова.Что наша Жизнь? Что бы мы ни делали: любили, смеялись, страдали, болели и лечились, убивали, обманывали, воровали — мы все бьемся в единой агонии, тщетной попытке удержаться за эту жизнь, как за последнюю ветку, соскальзывающую с наших рук. Жизнь — агония, вечная борьба со Смертью. Смерть — чудесное облегчение.Любовь к девушке» без изъяна» — Энн, дает вампиру Стивену прекрасную возможность наконец избавится от вечной агонии, которой по сути и являлась его Жизнь.Что касается актеров — из всех просмотренных фильмов с Джудом Лоу, этот — единственный, в котором он исполняет СВОЮ роль. Ну не смотрится он в роли смазливого романтичного любовника.Его партнерша тоже подобрана со вкусом, она потрясающе несовершенна, несовершенна до совершенства, да простит меня велик русский язык…

Media Info

Общее
Полное имя : D:\D\Мудрость крокодилов\The Wisdom of Crocodiles.1998.DVDRip.[pirat.ca].avi
Формат : AVI
Формат/Информация : Audio Video Interleave
Размер файла : 1,37 Гбайт
Продолжительность : 1 ч. 34 м.
Общий поток : 2063 Кбит/сек
Название фильма : The Wisdom of Crocodiles.1998.DVDRip.[pirat.ca]
Программа кодирования : VirtualDubMod 1.5.10.3 | www.virtualdub-fr.org || (build 2550/release)Видео
Идентификатор : 0
Формат : MPEG-4 Visual
Профиль формата : Advanced [email protected]/* */
Параметр BVOP формата : 2
Параметр QPel формата : Нет
Параметр GMC формата : Без точки перехода
Параметр матрицы формата : Выборочная
Идентификатор кодека : XVID
Идентификатор кодека/Подсказка : XviD
Продолжительность : 1 ч. 34 м.
Битрейт : 1861 Кбит/сек
Ширина : 704 пикселя
Высота : 528 пикселей
Соотношение сторон : 4:3
Частота кадров : 25,000 кадров/сек
Цветовое пространство : YUV
Субдискретизация насыщенности : 4:2:0
Битовая глубина : 8 бит
Тип развёртки : Прогрессивная
Метод сжатия : С потерями
Бит/(Пиксели*Кадры) : 0.200
Размер потока : 1,23 Гбайт (90%)
Библиотека кодирования : XviD 73Аудио
Идентификатор : 1
Формат : AC-3
Формат/Информация : Audio Coding 3
Расширение режима : CM (complete main)
Параметр Endianness формата : Big
Идентификатор кодека : 2000
Продолжительность : 1 ч. 34 м.
Вид битрейта : Постоянный
Битрейт : 192 Кбит/сек
Каналы : 2 канала
Расположение каналов : Front: L R
Частота : 48,0 КГц
Частота кадров : 31,250 кадров/сек (1536 spf)
Метод сжатия : С потерями
Размер потока : 130 Мбайт (9%)
Выравнивание : Разделение по промежуткам
Продолжительность промежутка : 40 мс. (1,00 видеокадр)
Время предзагрузки промежутка : 500 мс.

Скриншот c названием фильма

Скриншоты

-Трейлер
Яндекс.Метрика
Рейтинг@Mail.ru