[ Сегодня на трекере фрилич! Идет свободное скачивание без начисления Download ]

Пилъ. Курилъ (Стас Мохначев) [2013 г., криминал, WEB-DLRip-AVC]

 

Создавать темы 12-Авг-2016 03:37

-Пилъ. Курилъ-- Производство: Россия
Режиссер: Стас Мохначев
Жанр: криминал
Год выпуска: 2013 г.
Продолжительность: 01:28:05В ролях: Григорий Сиятвинда, Павел Майков, Максим Коновалов, Мария Горбань, Мария Кунах, Сергей Апрельский, Артурс Пуполс-Описание: «Лихие девяностые». Два отвязных киллера Валя и Покер, профессионально выполняя черную работу, нещадно прожигают свою жизнь.Наши дни. В стремлении покончить с криминальным прошлым и начать все с чистого листа, ребята находят себе новую работу — могильщиками на кладбище. Но тут появляется их прежний «работодатель» Сергей с весьма заманчивым предложением. Их ждет большой куш, но Покер против, а вот Валя — за. Чье же желание окажется сильнее и что из этого выйдет?-Сэмпл КиноПоиск
Качество видео: WEB-DLRip-AVC
Контейнер: MKV
Видео кодек: MPEG4 AVC
Аудио кодек: AC3
Видео: MPEG-4 AVC, 2569 kb/s, 1280х572, 25,000 fps
Аудио: AC3, 2 ch, 192 kb/s, 48,0 kHzCубтитры: отсутствуют

Media Info

Общее
Уникальный идентификатор : 228057861535695153105190444190549431418 (0xAB9258B18045E2AF9E2DD7A95BE0547A)
Полное имя : J:\Пилъ. Курилъ\Pil.Kuril.2013.[pirat.ca].mkv
Формат : Matroska
Версия формата : Version 2
Размер файла : 1,70 Гбайт
Продолжительность : 1 ч. 28 м.
Общий поток : 2760 Кбит/сек
Дата кодирования : UTC 2016-08-10 18:50:00
Программа кодирования : mkvmerge v6.1.0 ('Old Devil') built on Mar 4 2013 09:10:42
Библиотека кодирования : libebml v1.3.0 + libmatroska v1.4.0Видео
Идентификатор : 1
Формат : AVC
Формат/Информация : Advanced Video Codec
Профиль формата : [email protected]/* */
Параметр CABAC формата : Да
Параметр ReFrames формата : 4 кадра
Идентификатор кодека : V_MPEG4/ISO/AVC
Продолжительность : 1 ч. 28 м.
Битрейт : 2569 Кбит/сек
Ширина : 1280 пикселей
Высота : 572 пикселя
Соотношение сторон : 2,25:1
Режим частоты кадров : Постоянный
Частота кадров : 25,000 кадров/сек
Цветовое пространство : YUV
Субдискретизация насыщенности : 4:2:0
Битовая глубина : 8 бит
Тип развёртки : Прогрессивная
Бит/(Пиксели*Кадры) : 0.140
Размер потока : 1,55 Гбайт (91%)
Библиотека кодирования : x264 core 142
Настройки программы : cabac=1 / ref=3 / deblock=1:0:0 / analyse=0x3:0x113 / me=hex / subme=7 / psy=1 / psy_rd=1.00:0.00 / mixed_ref=1 / me_range=16 / chroma_me=1 / trellis=1 / 8x8dct=1 / cqm=0 / deadzone=21,11 / fast_pskip=1 / chroma_qp_offset=-2 / threads=36 / lookahead_threads=4 / sliced_threads=0 / nr=0 / decimate=1 / interlaced=0 / bluray_compat=0 / constrained_intra=0 / bframes=6 / b_pyramid=2 / b_adapt=1 / b_bias=0 / direct=1 / weightb=1 / open_gop=0 / weightp=2 / keyint=200 / keyint_min=20 / scenecut=0 / intra_refresh=0 / rc_lookahead=40 / rc=2pass / mbtree=1 / bitrate=2569 / ratetol=1.0 / qcomp=0.60 / qpmin=0 / qpmax=69 / qpstep=4 / cplxblur=20.0 / qblur=0.5 / vbv_maxrate=3854 / vbv_bufsize=10279 / nal_hrd=none / filler=0 / ip_ratio=1.40 / aq=1:1.00
Язык : English
Default : Да
Forced : НетАудио
Идентификатор : 2
Формат : AC-3
Формат/Информация : Audio Coding 3
Расширение режима : CM (complete main)
Параметр Endianness формата : Big
Идентификатор кодека : A_AC3
Продолжительность : 1 ч. 28 м.
Вид битрейта : Постоянный
Битрейт : 192 Кбит/сек
Каналы : 2 канала
Расположение каналов : Front: L R
Частота : 48,0 КГц
Частота кадров : 31,250 кадров/сек (1536 spf)
Метод сжатия : С потерями
Размер потока : 121 Мбайт (7%)
Default : Да
Forced : Нет

Скриншот c названием фильма

Скриншоты

-Трейлер
Яндекс.Метрика
Рейтинг@Mail.ru