[ Сегодня на трекере фрилич! Идет свободное скачивание без начисления Download ]

Гонин 2 / Gonin 2 (Такаси Исии / Takashi Ishii) [1996 г., боевик, криминал, BDRip-AVC, 720p] DVO [Премьер Мультимедия]

 

Создавать темы 12-Авг-2016 03:34

-Гонин 2 / Gonin 2-- Производство: Япония, Eisei Gekijo
Год выпуска: 1996 г.
Жанр: боевик, криминал
Продолжительность: 01:47:39Мировая премьера: 29 июня 1996
Перевод: Профессиональный (двухголосый, закадровый) [Премьер Мультимедия]
Режиссер: Такаси Исии / Takashi Ishii-В ролях: Кен Огата, Синобу Отакэ, Кимико Ё, Мэй Китаяма, Юи Нацукава, Юми Нишияма, Юми Такигава, Дайскэ Иидзима, Рейко Катаока, Шунсуке Мацуока-Описание: Якудза бессмертна и всесильна. Но даже у якудзы могут возникнуть проблемы, если в борьбу с грабителями вступают пять битых жизнью женщин. Их объединяет желание отыграться за свои неудачи, и ничто не остановит бунт слабых… даже смерть.-
Качество видео: BDRip-AVC
Контейнер: MKV
Стандарт разрешения: 720p
Видео кодек: MPEG4 AVC
Аудио кодек: AC3
Видео: MPEG-4 AVC, 5399 Kбит/с, 1280x690, 23.976 кадр/с
Аудио: AC3, 2 ch, 192 Кбит/с, 48,0 kHz
Cубтитры: отсутствуют

Media Info

Общее
Уникальный идентификатор : 237659411852649223943355740483200024919 (0xB2CB89AC4B42ABBB94091BFC3D190157)
Полное имя : F:\Гонин-2.Премьер Мультимедия\Gonin-2.1996.BDRip.720p.[pirat.ca].mkv
Формат : Matroska
Версия формата : Version 2
Размер файла : 4,21 Гбайт
Продолжительность : 1 ч. 47 м.
Общий поток : 5593 Кбит/сек
Дата кодирования : UTC 2016-08-11 16:41:55
Программа кодирования : mkvmerge v5.3.0 ('I could have danced') built on Feb 9 2012 10:38:07
Библиотека кодирования : libebml v1.2.3 + libmatroska v1.3.0Видео
Идентификатор : 1
Формат : AVC
Формат/Информация : Advanced Video Codec
Профиль формата : [email protected]/* */
Параметр CABAC формата : Да
Параметр ReFrames формата : 9 кадров
Идентификатор кодека : V_MPEG4/ISO/AVC
Продолжительность : 1 ч. 47 м.
Битрейт : 5290 Кбит/сек
Ширина : 1280 пикселей
Высота : 690 пикселей
Соотношение сторон : 1,85:1
Режим частоты кадров : Постоянный
Частота кадров : 23,976 (24000/1001) кадра/сек
Цветовое пространство : YUV
Субдискретизация насыщенности : 4:2:0
Битовая глубина : 8 бит
Тип развёртки : Прогрессивная
Бит/(Пиксели*Кадры) : 0.250
Размер потока : 3,98 Гбайт (95%)
Библиотека кодирования : x264 core 146 r2538 121396c
Настройки программы : cabac=1 / ref=9 / deblock=1:-3:-3 / analyse=0x3:0x113 / me=umh / subme=10 / psy=1 / psy_rd=1.00:0.15 / mixed_ref=1 / me_range=32 / chroma_me=1 / trellis=2 / 8x8dct=1 / cqm=0 / deadzone=21,11 / fast_pskip=1 / chroma_qp_offset=-3 / threads=6 / lookahead_threads=1 / sliced_threads=0 / nr=0 / decimate=1 / interlaced=0 / bluray_compat=0 / constrained_intra=0 / bframes=7 / b_pyramid=2 / b_adapt=2 / b_bias=0 / direct=1 / weightb=1 / open_gop=0 / weightp=2 / keyint=230 / keyint_min=23 / scenecut=40 / intra_refresh=0 / rc_lookahead=40 / rc=crf / mbtree=0 / crf=19.6 / qcomp=0.60 / qpmin=0 / qpmax=69 / qpstep=4 / vbv_maxrate=40000 / vbv_bufsize=50000 / crf_max=0.0 / nal_hrd=none / filler=0 / ip_ratio=1.40 / pb_ratio=1.30 / aq=1:1.00
Язык : Japanese
Default : Да
Forced : Нет
Statistics Tags Issue : mkvmerge v8.2.0 ('World of Adventure') 64bit 2016-08-10 13:23:32 / mkvmerge v5.3.0 ('I could have danced') built on Feb 9 2012 10:38:07 2016-08-11 16:41:55
FromStats_BitRate : 5399401
FromStats_Duration : 01:47:39.453000000
FromStats_FrameCount : 154872
FromStats_StreamSize : 4359647141Аудио
Идентификатор : 2
Формат : AC-3
Формат/Информация : Audio Coding 3
Расширение режима : CM (complete main)
Параметр Endianness формата : Big
Идентификатор кодека : A_AC3
Продолжительность : 1 ч. 47 м.
Вид битрейта : Постоянный
Битрейт : 192 Кбит/сек
Каналы : 2 канала
Расположение каналов : Front: L R
Частота : 48,0 КГц
Частота кадров : 31,250 кадров/сек (1536 spf)
Метод сжатия : С потерями
Размер потока : 148 Мбайт (3%)
Заголовок : DVO
Язык : Russian
Default : Да
Forced : Нет
Statistics Tags Issue : mkvmerge v8.2.0 ('World of Adventure') 64bit 2016-08-10 13:23:32 / mkvmerge v5.3.0 ('I could have danced') built on Feb 9 2012 10:38:07 2016-08-11 16:41:55
FromStats_BitRate : 192000
FromStats_Duration : 01:47:39.456000000
FromStats_FrameCount : 201858
FromStats_StreamSize : 155026944

Скриншот c названием фильма

Скриншоты

-Трейлер
Яндекс.Метрика
Рейтинг@Mail.ru