[ Сегодня на трекере фрилич! Идет свободное скачивание без начисления Download ]

Механик: Воскрешение / Mechanic: Resurrection (Дэннис Ганзель) [2016 г., Боевик, триллер, криминал, TeleSynch] MVO

 

Создавать темы 11-Авг-2016 04:47

-Механик: Воскрешение / Mechanic: Resurrection-- Производство: Франция, США
Год выпуска: 2016 г.
Жанр: Боевик, триллер, криминал
Продолжительность: 01:35:23Мировая премьера: 24 августа 2016
Российская премьера: 25 августа 2016
Перевод: Любительский (многоголосый, закадровый) [Студия Пиратского Дубляжа]
Режиссер: Дэннис Ганзель-В ролях: Джейсон Стэйтем, Джессика Альба, Томми Ли Джонс, Мишель Йео, Наталия Гуслистая, Ейяинг Рхатха Пхонгам, Сэм Хэзелдайн, Джон Ченатьемпо, Райчо Василев, Аарон Брамфилд-Описание: Артура Бишопа, давно оставившего свое криминальное ремесло, вынуждают снова вступить в игру. Чтобы похитители вернули его возлюбленную, он должен сделать то, что у него получается лучше всего: от него требуется совершить три убийства, идеально обставленных как несчастные случаи.-
Качество видео: TeleSynch
Контейнер: AVI
Стандарт разрешения: 480p
Видео кодек: XviD
Аудио кодек: AC3
Видео: 720x304, 23.976 fps, 1849 Кбит/с
Аудио: 192 kb/s, 2 ch, 48.0 KHz
Cубтитры: отсутствуют

Доп. информация

Бюджет: $40 000 000

Media Info

General
Complete name : D:\!Video\Фильмы\Mechanic.Resurrection.2016.P.TS.14OOMB.avi
Format : AVI
Format/Info : Audio Video Interleave
File size : 1.37 GiB
Duration : 1h 35mn
Overall bit rate : 2 051 Kbps
Writing application : VirtualDubMod 1.5.10.2 (build 2540/release)
Writing library : VirtualDubMod build 2540/releaseVideo
ID : 0
Format : MPEG-4 Visual
Format profile : Advanced [email protected]/* */
Format settings, BVOP : 2
Format settings, QPel : No
Format settings, GMC : No warppoints
Format settings, Matrix : Custom
Codec ID : XVID
Codec ID/Hint : XviD
Duration : 1h 35mn
Bit rate : 1 850 Kbps
Width : 720 pixels
Height : 304 pixels
Display aspect ratio : 2.35:1
Frame rate : 23.976 (24000/1001) fps
Color space : YUV
Chroma subsampling : 4:2:0
Bit depth : 8 bits
Scan type : Progressive
Compression mode : Lossy
Bits/(Pixel*Frame) : 0.352
Stream size : 1.23 GiB (90%)
Writing library : XviD 1.2.1 (UTC 2008-12-04)Audio
ID : 1
Format : AC-3
Format/Info : Audio Coding 3
Mode extension : CM (complete main)
Format settings, Endianness : Big
Codec ID : 2000
Duration : 1h 35mn
Bit rate mode : Constant
Bit rate : 192 Kbps
Channel(s) : 2 channels
Channel positions : Front: L R
Sampling rate : 48.0 KHz
Frame rate : 31.250 fps (1536 spf)
Compression mode : Lossy
Stream size : 131 MiB (9%)
Alignment : Split accross interleaves
Interleave, duration : 42 ms (1.00 video frame)
Interleave, preload duratio : 500 ms

Скриншоты

-Трейлер

Создавать темы 12-Авг-2016 19:42 (спустя 1 день 14 часов)

Топик был перенесен из форума Зарубежные Новинки (HD*Rip/LQ, DVDRip) в форум Экранки
T_O_M
Яндекс.Метрика
Рейтинг@Mail.ru