[ Сегодня на трекере фрилич! Идет свободное скачивание без начисления Download ]

Эпик / Epic (Крис Уэдж / Chris Wedge) [2013 г., анимация, фэнтези, приключения, семейный, BDRip] AVO (Гаврилов)

 

Создавать темы 02-Янв-2014 20:59

-Эпик / Epic-- Год выпуска: 2013
Производство: США, 20th Century Fox
Жанр: анимация, фэнтези, приключения, семейный
Продолжительность: 01:42:29-Перевод: Авторский (одноголосый, закадровый) Гаврилов-Субтитры: отсутствуют-Режиссер: Крис Уэдж / Chris Wedge
В ролях: Джош Хатчерсон, Аманда Сайфред, Колин Фаррелл, Джейсон Судейкис, Азиз Ансари, Бейонсе Ноулз, Джонни Ноксвилл, Джуда Фридлендер, Блейк Андерсон, Кристоф Вальц, Стивен Тайлер, Питбулл, Джейсон Харрис, Эмма Кинни--Описание: Вы никогда не задумывались о том, что за порогом вашего дома, в самом обыкновенном саду, может кипеть настоящая жизнь со злодеями, храбрецами, тайнами и магией? Что злобная мерзкая паучиха творит козни всем обитателям зеленого королевства, чтобы ухоженный благоухающий сад превратился в сухой хворост да серую пыль?-- - -Качество видео: BDRip
Контейнер: AVI
Видео кодек: DivX
Аудио кодек: AC3
Видео: 720x304 (2.37:1), 23.976 fps, XviD build 73 ~1820 kbps avg, 0.35 bit/pixel-Аудио : 48 kHz, AC3 Dolby Digital, 3/2 (L,C,R,l,r) + LFE ch, ~448 kbps - Гаврилов-

Кванты

I frames: 1776 frames, size = 40662/72216370, quants = 2 / 2.00 / 2
P frames: 76601 frames, size = 12782/979168440, quants = 2 / 2.00 / 2
B frames: 69054 frames, size = 5036/347768363, quants = 2 / 2.00 / 2

Media Info

General
Complete name : G:\На пиратку\! не розданные\Epic.2013.BDRip.Gavrilov_byGross\Epic.2013.BDRip.Gavrilov_byGross.avi
Format : AVI
Format/Info : Audio Video Interleave
File size : 1.63 GiB
Duration : 1h 42mn
Overall bit rate : 2 278 Kbps
Writing application : VirtualDubMod 1.5.10.3 | www.virtualdub-fr.org || (build 2550/release)
Writing library : VirtualDubMod build 2550/release
Video
ID : 0
Format : MPEG-4 Visual
Format profile : Advanced [email protected]
Format settings, BVOP : 1
Format settings, QPel : No
Format settings, GMC : No warppoints
Format settings, Matrix : Custom
Codec ID : XVID
Codec ID/Hint : XviD
Duration : 1h 42mn
Bit rate : 1 820 Kbps
Width : 720 pixels
Height : 304 pixels
Display aspect ratio : 2.35:1
Frame rate : 23.976 fps
Color space : YUV
Chroma subsampling : 4:2:0
Bit depth : 8 bits
Scan type : Progressive
Compression mode : Lossy
Bits/(Pixel*Frame) : 0.347
Stream size : 1.30 GiB (80%)
Writing library : XviD 73
Audio
ID : 1
Format : AC-3
Format/Info : Audio Coding 3
Mode extension : CM (complete main)
Codec ID : 2000
Duration : 1h 42mn
Bit rate mode : Constant
Bit rate : 448 Kbps
Channel(s) : 6 channels
Channel positions : Front: L C R, Side: L R, LFE
Sampling rate : 48.0 KHz
Bit depth : 16 bits
Compression mode : Lossy
Stream size : 328 MiB (20%)
Alignment : Split accross interleaves
Interleave, duration : 42 ms (1.00 video frame)
Interleave, preload duration : 500 ms

Доп. информация

РИП
За исходник Blu-Ray Remux (1080p) спасибо ollan (кинозал)
За перевод А. Гаврилова, большое спасибо пользователям HDTRACKER :
therox, Xerman13, shitman82, kinobbk, _MyxAmoP_, SavineX, Brown15, foxlight, mamachucha66, -Джосс-, rydanes, dunhill200, Chistobaev, lexal, karantin66, Vimann, chef&chef, olegsoleg, Role, nimph, Guyver, v111o, KpucTo161, ASUKEVICH, Диммон, Pain_70, overdose, carter64, Slimka, furria62, hulahup, phaeton77.

Скриншоты

--
Яндекс.Метрика
Рейтинг@Mail.ru