Спасти мистера Ву / Jie jiu Wu xian sheng (Дин Шэн / Ding Sheng) [2015 г., боевик, BDRip] DVO [DeadSno & den904]

 

Создавать темы 10-Авг-2016 03:36

-Спасти мистера Ву / Jie jiu Wu xian sheng-- Производство: Китай, Beijing Going Zoom Media, Beijing Gongzuoshi Entertainment Co., Beijing Skywheel Entertainment Co., Shanghai New Culture Media Group
Год выпуска: 2015 г.
Жанр: боевик
Продолжительность: 01:46:05Мировая премьера: 30 сентября 2015
Перевод: Любительский (двухголосый, закадровый) [DeadSno & den904]
Режиссер: Дин Шэн / Ding Sheng-В ролях: Энди Лау, Лю Е, Цяньюан Ванг, Рафу Ву, Ксиорай Джау, Лу Пенг, Цай Лу, Лам Сует, Ли Мэн, Вэй На и др.-Описание: Фильм основан на реальных событиях, которые произошли с китайским актером в 2004 году. Трое мужчин, переодетые в форму полицейских, выкрали актера и потребовали три миллиона юаней.-
Качество видео: BDRip
Контейнер: AVI
Видео кодек: XviD
Аудио кодек: AC3
Видео: 720x304 (2.37:1), 24.000 fps, XviD build 50 ~2021 kbps avg, 0.39 bit/pixel
Аудио: 48 kHz, AC3 Dolby Digital, 3/2 (L,C,R,l,r) + LFE ch, ~448 kbps
Cубтитры: отсутствуют

Media Info

Общее
Полное имя : J:\Спасти мистера Ву\Saving Mr.Wu.2015.BDRip.[pirat.ca].avi
Формат : AVI
Формат/Информация : Audio Video Interleave
Размер файла : 1,84 Гбайт
Продолжительность : 1 ч. 46 м.
Общий поток : 2479 Кбит/сек
Название фильма : Saving Mr.Wu.2015.BDRip.[pirat.ca]
Программа кодирования : VirtualDubMod 1.5.10.3 (build 2550/release)
Библиотека кодирования : VirtualDubMod build 2550/releaseВидео
Идентификатор : 0
Формат : MPEG-4 Visual
Профиль формата : Advanced [email protected]/* */
Параметр BVOP формата : 2
Параметр QPel формата : Нет
Параметр GMC формата : Без точки перехода
Параметр матрицы формата : Default (MPEG)
Идентификатор кодека : XVID
Идентификатор кодека/Подсказка : XviD
Продолжительность : 1 ч. 46 м.
Битрейт : 2022 Кбит/сек
Ширина : 720 пикселей
Высота : 304 пикселя
Соотношение сторон : 2,35:1
Частота кадров : 24,000 кадра/сек
Цветовое пространство : YUV
Субдискретизация насыщенности : 4:2:0
Битовая глубина : 8 бит
Тип развёртки : Прогрессивная
Метод сжатия : С потерями
Бит/(Пиксели*Кадры) : 0.385
Размер потока : 1,50 Гбайт (82%)
Библиотека кодирования : XviD 1.2.1 (UTC 2008-12-04)Аудио
Идентификатор : 1
Формат : AC-3
Формат/Информация : Audio Coding 3
Расширение режима : CM (complete main)
Параметр Endianness формата : Big
Идентификатор кодека : 2000
Продолжительность : 1 ч. 46 м.
Вид битрейта : Постоянный
Битрейт : 448 Кбит/сек
Каналы : 6 каналов
Расположение каналов : Front: L C R, Side: L R, LFE
Частота : 48,0 КГц
Частота кадров : 31,250 кадров/сек (1536 spf)
Метод сжатия : С потерями
Размер потока : 340 Мбайт (18%)
Выравнивание : Разделение по промежуткам
Продолжительность промежутка : 42 мс. (1,00 видеокадр)
Время предзагрузки промежутка : 500 мс.

Скриншот c названием фильма

Скриншоты

-Трейлер
Яндекс.Метрика
Рейтинг@Mail.ru