Малыш по прозвищу «Опасность» / A Kid Called Danger (Эрик Хендершот / Eric Hendershot) [1999 г., криминал, семейный, DVDRip] MVO

 

Создавать темы 10-Авг-2016 03:22

-Малыш по прозвищу «Опасность» / A Kid Called Danger-- Производство: США, Speedy Films, Videal GmbH
Год выпуска: 1999 г.
Жанр: криминал, семейный
Продолжительность: 01:24:56Мировая премьера: 19 октября 1999
Перевод: Профессиональный (многоголосый, закадровый)
Режиссер: Эрик Хендершот / Eric Hendershot-В ролях: Ноа Форрест / Noah Forrest, Клэйтон Тейлор / Clayton Taylor, Mace Melonas, Стив О`Нейл / Steve O'Neill, Девин Гарднер / Devin Gardner, Джон Армстронг / John Armstrong, Randi-Lynn Strong, DMarko Blewett, Coco Nebeker, Derrick Shore-Описание: Дейн МакКуайер — самый отважный мальчуган в мире! Он мечтает поскорей вырасти и стать детективом, как его отец. Но кто же захочет ждать так долго? И Дейн начинает охоту за известным похитителем драгоценностей. Однако отец не принимает его расследования всерьез. Что еще остается делать юному сыщику, кроме как собрать своих друзей и самому попытаться поймать преступника.-
Качество видео: DVDRip
Контейнер: AVI
Видео кодек: XviD
Аудио кодек: AC3
Видео: 640x480 (1.33:1), 23.976 fps, XviD build 50 ~2041 kbps avg, 0.28 bit/pixel
Аудио: 48 kHz, AC3 Dolby Digital, 2/0 (L,R) ch, ~192 kbps
Cубтитры: отсутствуют

Media Info

Общее
Полное имя : J:\Малыш по прозвищу «Опасность»\A Kid Called Danger.1999.DVDRip.[pirat.ca].avi
Формат : AVI
Формат/Информация : Audio Video Interleave
Размер файла : 1,33 Гбайт
Продолжительность : 1 ч. 24 м.
Общий поток : 2243 Кбит/сек
Название фильма : A Kid Called Danger.[pirat.ca]
Программа кодирования : VirtualDubMod 1.5.10.3 (build 2550/release)Видео
Идентификатор : 0
Формат : MPEG-4 Visual
Профиль формата : Advanced [email protected]/* */
Параметр BVOP формата : 1
Параметр QPel формата : Нет
Параметр GMC формата : Без точки перехода
Параметр матрицы формата : Выборочная
Идентификатор кодека : XVID
Идентификатор кодека/Подсказка : XviD
Продолжительность : 1 ч. 24 м.
Битрейт : 2042 Кбит/сек
Ширина : 640 пикселей
Высота : 480 пикселей
Соотношение сторон : 4:3
Частота кадров : 23,976 (23976/1000) кадра/сек
Цветовое пространство : YUV
Субдискретизация насыщенности : 4:2:0
Битовая глубина : 8 бит
Тип развёртки : Прогрессивная
Метод сжатия : С потерями
Бит/(Пиксели*Кадры) : 0.277
Размер потока : 1,21 Гбайт (91%)
Библиотека кодирования : XviD 1.2.1 (UTC 2008-12-04)Аудио
Идентификатор : 1
Формат : AC-3
Формат/Информация : Audio Coding 3
Расширение режима : CM (complete main)
Параметр Endianness формата : Big
Идентификатор кодека : 2000
Продолжительность : 1 ч. 24 м.
Вид битрейта : Постоянный
Битрейт : 192 Кбит/сек
Каналы : 2 канала
Расположение каналов : Front: L R
Частота : 48,0 КГц
Частота кадров : 31,250 кадров/сек (1536 spf)
Метод сжатия : С потерями
Размер потока : 117 Мбайт (9%)
Выравнивание : Разделение по промежуткам
Продолжительность промежутка : 42 мс. (1,00 видеокадр)
Время предзагрузки промежутка : 500 мс.

Скриншот c названием фильма

Скриншоты

-Трейлер
Яндекс.Метрика
Рейтинг@Mail.ru