[ Сегодня на трекере фрилич! Идет свободное скачивание без начисления Download ]

Человек с пистолетом / Man with a Gun (Дэвид Уайлес / David Wyles) [1995 г., боевик, DVDRip] DVO

 

Создавать темы 10-Авг-2016 03:19

-Человек с пистолетом / Man with a Gun-- Производство: Канада, Northwood Productions, Nu-Image Films, October Films, ...
Год выпуска: 1995 г.
Жанр: боевик
Продолжительность: 01:31:06Мировая премьера: 9 октября 1995
Перевод: Профессиональный (двухголосый, закадровый) [НТВ (Александр Клюквин и Мария Клюквина)]
Режиссер: Дэвид Уайлес / David Wyles-В ролях: Майкл Мэдсен (John Wilbur Hardin), Дженнифер Тилли (Rena Rushton / Kathy Payne), Гэри Бьюзи (Jack Rushton), Роберт Лоджа (Philip Marquand), Иэн Трейси (Roy Burchill), Билл Коббс (Henry Griggs), Билл Дау (Ed Quigley), Джейсон Шомбинг (Eli Spindel), Эндрю Гай (Italian Stud), Александра Косанович (Ticket Agent)-Описание: Деньги и страсть требуют крови, и только любовь дарит человеку единственный шанс выжить. Джон Хардин должен убить Рину, жену своего босса Джека Раштона…-Качество видео: DVDRip
Контейнер: AVI
Видео кодек: XviD
Аудио кодек: AC3
Видео: 640x496 (1.29:1), 25 fps, XviD build 46 ~932 kbps avg, 0.12 bit/pixel
Аудио: 48 kHz, AC3 Dolby Digital, 2/0 (L,R) ch, ~192 kbps - НТВ: Александр Клюквин и Мария Клюквина
Cубтитры: отсутствуют

Media Info

Общее
Полное имя : J:\Человек с пистолетом\CHelovek s pistoletom.1995.DVDRip.[pirat.ca].avi
Формат : AVI
Формат/Информация : Audio Video Interleave
Размер файла : 739 Мбайт
Продолжительность : 1 ч. 31 м.
Общий поток : 1134 Кбит/сек
Название фильма : CHelovek s pistoletom.1995.DVDRip.[pirat.ca]
Программа кодирования : VirtualDubMod 1.5.10.3 | www.virtualdub-fr.org || (build 2550/release)Видео
Идентификатор : 0
Формат : MPEG-4 Visual
Профиль формата : [email protected]/* */
Параметр BVOP формата : Нет
Параметр QPel формата : Нет
Параметр GMC формата : Без точки перехода
Параметр матрицы формата : Default (H.263)
Идентификатор кодека : XVID
Идентификатор кодека/Подсказка : XviD
Продолжительность : 1 ч. 31 м.
Битрейт : 933 Кбит/сек
Ширина : 640 пикселей
Высота : 496 пикселей
Соотношение сторон : 1,290
Частота кадров : 25,000 кадров/сек
Цветовое пространство : YUV
Субдискретизация насыщенности : 4:2:0
Битовая глубина : 8 бит
Тип развёртки : Прогрессивная
Метод сжатия : С потерями
Бит/(Пиксели*Кадры) : 0.118
Размер потока : 608 Мбайт (82%)
Библиотека кодирования : XviD 1.1.2 (UTC 2006-11-01)Аудио
Идентификатор : 1
Формат : AC-3
Формат/Информация : Audio Coding 3
Расширение режима : CM (complete main)
Параметр Endianness формата : Big
Идентификатор кодека : 2000
Продолжительность : 1 ч. 31 м.
Вид битрейта : Постоянный
Битрейт : 192 Кбит/сек
Каналы : 2 канала
Расположение каналов : Front: L R
Частота : 48,0 КГц
Частота кадров : 31,250 кадров/сек (1536 spf)
Метод сжатия : С потерями
Размер потока : 125 Мбайт (17%)
Выравнивание : Разделение по промежуткам
Продолжительность промежутка : 40 мс. (1,00 видеокадр)
Время предзагрузки промежутка : 500 мс.
Заголовок : НТВ: Александр Клюквин и Мария Клюквина

Скриншот c названием фильма

Скриншоты

-Трейлер
Яндекс.Метрика
Рейтинг@Mail.ru