[ Сегодня на трекере фрилич! Идет свободное скачивание без начисления Download ]

Пиноккио / Pinocchio (Анна Джастис / Anna Justice) [2013 г., семейный, HD TVRIP-AVC, 1080p] MVO

 

Создавать темы 10-Авг-2016 03:13

-Пиноккио / Pinocchio-- Производство: Германия, FP New Media GmbH
Год выпуска: 2013 г.
Жанр: семейный
Продолжительность: 02:58:27Мировая премьера: 25 декабря 2013
Перевод: Профессиональный (многоголосый, закадровый)
Режиссер: Анна Джастис / Anna Justice-В ролях: Марио Адорф, Беньямин Задлер, Инка Фридрих, Флориан Лукас, Сандра Хюллер, Николайс Боргер, Арвед Фризе, Мориц Расс, Анке Энгельке, Аксель Нойманн-Описание: В маленькой итальянской деревушке начинают происходить странные события. Одна из деревянных кукол, которую смастерил старик Джепетто, оживает. Плотник называет мальчика Пиноккио и решает воспитывать его, как родного сына. Пиноккио почти не отличается от остальных детей: он любит играть, обожает сладкое и совсем не желает учиться и помогать старшим. В погоне за удовольствиями он отправляется вместе с друзьями на поиски волшебной страны, о которой ходят легенды.-
Качество видео: HD TVRIP-AVC
Контейнер: MKV
Стандарт разрешения: 1080p
Видео кодек: MPEG4 AVC
Аудио кодек: AC3
Видео: 6000 Кбит/сек, 1920х1080, 25,000 кадров/сек
Аудио: AC-3, 192 Кбит/сек, 2 канала, 48,0 КГц
Cубтитры: отсутствуют

Media Info

Общее
Уникальный идентификатор : 236431992343053683927289077945080131543 (0xB1DF25380C13E52C8450496B49E2AFD7)
Полное имя : J:\Пиноккио\Pinocchio.2013.HDTVRip-AVC.720p.[pirat.ca]\Pinocchio.01.mkv
Формат : Matroska
Версия формата : Version 4 / Version 2
Размер файла : 1,85 Гбайт
Продолжительность : 43 м.
Общий поток : 6160 Кбит/сек
Дата кодирования : UTC 2015-12-09 16:10:54 / UTC 2015-12-09 16:10:54
Программа кодирования : Lavf57.3.100
Библиотека кодирования : Lavf57.3.100 / Lavf57.3.100Видео
Идентификатор : 1
Формат : AVC
Формат/Информация : Advanced Video Codec
Профиль формата : [email protected]/* */
Параметр CABAC формата : Да
Параметр ReFrames формата : 4 кадра
Идентификатор кодека : V_MPEG4/ISO/AVC
Продолжительность : 43 м.
Битрейт : 6000 Кбит/сек
Ширина : 1920 пикселей
Высота : 1080 пикселей
Соотношение сторон : 16:9
Режим частоты кадров : Постоянный
Частота кадров : 25,000 кадров/сек
Цветовое пространство : YUV
Субдискретизация насыщенности : 4:2:0
Битовая глубина : 8 бит
Тип развёртки : Прогрессивная
Бит/(Пиксели*Кадры) : 0.116
Размер потока : 1,76 Гбайт (95%)
Библиотека кодирования : x264 core 148 r2538
Настройки программы : cabac=1 / ref=4 / deblock=1:0:0 / analyse=0x3:0x133 / me=umh / subme=8 / psy=1 / psy_rd=1.00:0.00 / mixed_ref=0 / me_range=16 / chroma_me=1 / trellis=1 / 8x8dct=1 / cqm=0 / deadzone=21,11 / fast_pskip=1 / chroma_qp_offset=-2 / threads=6 / lookahead_threads=1 / sliced_threads=0 / nr=0 / decimate=1 / interlaced=0 / bluray_compat=0 / constrained_intra=0 / bframes=3 / b_pyramid=0 / b_adapt=2 / b_bias=0 / direct=3 / weightb=1 / open_gop=0 / weightp=2 / keyint=250 / keyint_min=25 / scenecut=40 / intra_refresh=0 / rc_lookahead=50 / rc=2pass / mbtree=1 / bitrate=6000 / ratetol=1.0 / qcomp=0.60 / qpmin=10 / qpmax=69 / qpstep=4 / cplxblur=20.0 / qblur=0.5 / vbv_maxrate=6000 / vbv_bufsize=24000 / nal_hrd=none / filler=0 / ip_ratio=1.40 / aq=3:1.00
Язык : English
Default : Да
Forced : Нет
DURATION : 00:43:03.885000000Аудио
Идентификатор : 2
Формат : AC-3
Формат/Информация : Audio Coding 3
Расширение режима : CM (complete main)
Параметр Endianness формата : Big
Идентификатор кодека : A_AC3
Продолжительность : 43 м.
Вид битрейта : Постоянный
Битрейт : 192 Кбит/сек
Каналы : 2 канала
Расположение каналов : Front: L R
Частота : 48,0 КГц
Частота кадров : 31,250 кадров/сек (1536 spf)
Битовая глубина : 16 бит
Метод сжатия : С потерями
Размер потока : 59,1 Мбайт (3%)
Библиотека кодирования : Lavc57.4.100 ac3_fixed
Язык : English
Default : Да
Forced : Нет
DURATION : 00:43:03.936000000

Скриншот c названием фильма

Скриншоты

-Трейлер
Яндекс.Метрика
Рейтинг@Mail.ru