[ Сегодня на трекере фрилич! Идет свободное скачивание без начисления Download ]

Он – дракон (Индар Джендубаев) [2015 г., фэнтези, BDRip-AVC, 1080p, Half OverUnder / Вертикальная анаморфная стереопара] Лицензия

 

Создавать темы 10-Авг-2016 03:06

-Он – дракон-- Производство: Россия, Базелевс Продакшн
Режиссер: Индар Джендубаев
Жанр: фэнтези
Год выпуска: 2015 г.
Продолжительность: 01:47:26Российская премьера: 4 декабря 2015
Дата выхода DVD: 3 декабря 2015, «Bazelevs Distribution»
В ролях: Мария Поезжаева, Матвей Лыков, Станислав Любшин, Иева Андреевайте, Петр Романов, Андрей Лебединский, Марта Тимофеева, Иво Господинов, Егор Зубарчук, Виктория Рунцова-Описание: В разгар свадьбы княжну Мирославу похищает дракон, унося в свой замок на острове. В прошлом остались родные, жених, теперь только каменный плен в компании прекрасного Армана… но кто он и как оказался на острове? Мира поймет это слишком поздно: любовь к нему, человеку-дракону, откроет ей горькую истину — любить страшно.-Сэмпл КиноПоиск
Качество видео: BDRip-AVC
Формат 3D: Вертикальная анаморфная стереопара / Half OverUnder
Контейнер: MKV
Стандарт разрешения: 1080p
Видео кодек: MPEG4 AVC
Аудио кодек: AC3
Видео: MPEG-4 AVC, 11500 Кбит/с, 1920x1080, 23.976 кадр/с
Аудио: AC3, 6 ch, 640 Кбит/сCубтитры: отсутствуют

Рецензия

Настоящая русская легендаЯ вообще далеко не фанатка российского кино. Шла на этот фильм с большим опасением.. Сначала было странно, какие-то фигурки.. белеберда. Но потом история затянула, стало интересно узнавать детали и хотелось понять, чем всё закончится.Очень интересно, красиво и продуманно снято! От российского кино не ожидала такой графики! Очень понравился антураж Древней Руси, прекрасно показан страшный ритуал.Лыков — не особо симпатичный по-моему мнению Так же как-то он очень переигрывал и говорил нарочито… В общем за главного героя — минус.Мирослава получилась немного современная, но это не очень испортило сюжет. Актриса Поезжаева Мария неплохо справилась с ролью.В конце очень переживала за героев, момент, когда Мира поет «драконью» песню очень захватывающий.Этот фильм будет не плохо смотреться зарубежом!Это так называемый наш ответ на разнообразные американские саги…Отличный фильм, есть недочёты, но я рада за российское кино. Для меня это прорыв!

Media Info

Общее
Уникальный идентификатор : 209130768456066185116072615477965438913 (0x9D551EF50566398891FF706EF6433FC1)
Полное имя : D:\Он – дракон\DRAGON.2015.3D.[pirat.ca].mkv
Формат : Matroska
Версия формата : Version 2
Размер файла : 9,31 Гбайт
Продолжительность : 1 ч. 47 м.
Общий поток : 12,4 Мбит/сек
Название фильма : DRAGON_3D_Crop_HO/U
Дата кодирования : UTC 2016-07-31 05:25:40
Программа кодирования : mkvmerge v5.6.0 ('Kenya Kane') built on Jun 29 2012 15:01:44
Библиотека кодирования : libebml v1.2.3 + libmatroska v1.3.0Видео
Идентификатор : 1
Формат : AVC
Формат/Информация : Advanced Video Codec
Профиль формата : [email protected]/* */
Параметр CABAC формата : Да
Параметр ReFrames формата : 4 кадра
Идентификатор кодека : V_MPEG4/ISO/AVC
Продолжительность : 1 ч. 47 м.
Битрейт : 11,5 Мбит/сек
Ширина : 1920 пикселей
Высота : 1080 пикселей
Соотношение сторон : 16:9
Режим частоты кадров : Постоянный
Частота кадров : 23,976 (24000/1001) кадра/сек
Цветовое пространство : YUV
Субдискретизация насыщенности : 4:2:0
Битовая глубина : 8 бит
Тип развёртки : Прогрессивная
Бит/(Пиксели*Кадры) : 0.232
Размер потока : 8,65 Гбайт (93%)
Заголовок : rip by I/N
Библиотека кодирования : x264 core 128 r2216M 198a7ea
Настройки программы : cabac=1 / ref=4 / deblock=1:-3:-3 / analyse=0x3:0x133 / me=umh / subme=10 / psy=1 / psy_rd=1.00:0.15 / mixed_ref=1 / me_range=64 / chroma_me=1 / trellis=2 / 8x8dct=1 / cqm=0 / deadzone=21,11 / fast_pskip=1 / chroma_qp_offset=-3 / threads=8 / lookahead_threads=1 / sliced_threads=0 / nr=0 / decimate=1 / interlaced=0 / bluray_compat=0 / constrained_intra=0 / bframes=12 / b_pyramid=2 / b_adapt=2 / b_bias=0 / direct=3 / weightb=1 / open_gop=0 / weightp=2 / keyint=230 / keyint_min=23 / scenecut=40 / intra_refresh=0 / rc_lookahead=40 / rc=crf / mbtree=1 / crf=14.5 / qcomp=0.60 / qpmin=10 / qpmax=69 / qpstep=4 / vbv_maxrate=40000 / vbv_bufsize=30000 / crf_max=30.0 / nal_hrd=none / ip_ratio=1.40 / aq=1:0.90
Default : Да
Forced : НетАудио
Идентификатор : 2
Формат : AC-3
Формат/Информация : Audio Coding 3
Расширение режима : CM (complete main)
Параметр Endianness формата : Big
Идентификатор кодека : A_AC3
Продолжительность : 1 ч. 47 м.
Вид битрейта : Постоянный
Битрейт : 640 Кбит/сек
Каналы : 6 каналов
Расположение каналов : Front: L C R, Side: L R, LFE
Частота : 48,0 КГц
Частота кадров : 31,250 кадров/сек (1536 spf)
Метод сжатия : С потерями
Размер потока : 492 Мбайт (5%)
Заголовок : Original
Язык : Russian
Default : Да
Forced : НетМеню
00:00:00.000 : en:00:00:00.000
00:08:54.784 : en:00:08:54.784
00:17:23.000 : en:00:17:23.000
00:26:30.798 : en:00:26:30.798
00:34:56.136 : en:00:34:56.136
00:45:05.494 : en:00:45:05.494
00:54:25.262 : en:00:54:25.262
01:02:54.729 : en:01:02:54.729
01:13:01.502 : en:01:13:01.502
01:21:56.870 : en:01:21:56.870
01:31:10.632 : en:01:31:10.632
01:41:10.856 : en:01:41:10.856
01:47:26.357 : en:01:47:26.357

Скриншоты

-Трейлер
Яндекс.Метрика
Рейтинг@Mail.ru