Парень с того света / My Boyfriend's Back (Боб Бэлабан / Bob Balaban) [1993 г., комедия, ужасы, фэнтези, мелодрама, BDRip-AVC] VO

 

Создавать темы 10-Авг-2016 03:03

-Парень с того света / My Boyfriend's Back-- Производство: США, Touchstone Pictures, ...
Год выпуска: 1993 г.
Жанр: комедия, ужасы, фэнтези, мелодрама
Продолжительность: 01:24:30Мировая премьера: 6 августа 1993
Перевод: Любительский (одноголосый, закадровый)
Режиссер: Боб Бэлабан / Bob Balaban-В ролях: Эндрю Лоури, Трейси Линд, Дэнни Зорн, Эдвард Херрманн, Мэри Бет Хёрт, Джей О. Сэндерс, Либби Виллари, Мэттью Фокс, Филип Сеймур Хоффман, Пол Дули...-Описание: Как порою трудно завоевать сердце девушки! И особенно нелегко, если ты… покойник! Школьник Джонни Дингл очень хотел уговорить прелестную Мисси МакКул пойти на выпускной бал с ним, но трагически погиб на подступах к этому великому событию. Однако, как ни странно, сей печальный инцидент не помешал Джонни попытаться завершить начатое: упорный ухажер восстал из мертвых с твердым намерением все-таки потанцевать с Мисси, правда, прежде придется решить ряд насущных для всякого начинающего зомби проблем…-
Качество видео: BDRip-AVC
Контейнер: MKV
Видео кодек: MPEG4 AVC
Аудио кодек: AC3
Видео: 768x432 (16:9), 23,976 fps, MPEG-4 AVC ~2085 kbps avg, 0.262 bit/pixel
Аудио: 48 kHz, AC3 Dolby Digital, 2/0 (L,R) ch, ~192 kbps
Cубтитры: отсутствуют

Media Info

Общее
Уникальный идентификатор : 220321212979500405671208411369536106205 (0xA5C052782A9937978D7AC046EE962EDD)
Полное имя : J:\Парень с того света\Paren s togo sveta.1993.BDRip-AVC.[pirat.ca].mkv
Формат : Matroska
Версия формата : Version 2
Размер файла : 1,34 Гбайт
Продолжительность : 1 ч. 24 м.
Общий поток : 2278 Кбит/сек
Дата кодирования : UTC 2016-08-09 15:20:35
Программа кодирования : mkvmerge v5.3.0 ('I could have danced') built on Feb 9 2012 10:38:07
Библиотека кодирования : libebml v1.2.3 + libmatroska v1.3.0Видео
Идентификатор : 1
Формат : AVC
Формат/Информация : Advanced Video Codec
Профиль формата : [email protected]/* */
Параметр CABAC формата : Да
Параметр ReFrames формата : 8 кадров
Идентификатор кодека : V_MPEG4/ISO/AVC
Продолжительность : 1 ч. 24 м.
Битрейт : 2085 Кбит/сек
Ширина : 768 пикселей
Высота : 432 пикселя
Соотношение сторон : 16:9
Режим частоты кадров : Постоянный
Частота кадров : 23,976 (24000/1001) кадра/сек
Частота кадров в оригинале : 23,976 (23976/1000) кадра/сек
Цветовое пространство : YUV
Субдискретизация насыщенности : 4:2:0
Битовая глубина : 8 бит
Тип развёртки : Прогрессивная
Бит/(Пиксели*Кадры) : 0.262
Размер потока : 1,20 Гбайт (90%)
Библиотека кодирования : x264 core 146 r2538 121396c
Настройки программы : cabac=1 / ref=8 / deblock=1:-2:-1 / analyse=0x3:0x133 / me=umh / subme=10 / psy=1 / psy_rd=1.00:0.20 / mixed_ref=1 / me_range=28 / chroma_me=1 / trellis=2 / 8x8dct=1 / cqm=0 / deadzone=21,11 / fast_pskip=1 / chroma_qp_offset=-3 / threads=3 / lookahead_threads=1 / sliced_threads=0 / nr=0 / decimate=1 / interlaced=0 / bluray_compat=0 / constrained_intra=0 / bframes=8 / b_pyramid=2 / b_adapt=2 / b_bias=0 / direct=3 / weightb=1 / open_gop=0 / weightp=2 / keyint=250 / keyint_min=23 / scenecut=40 / intra_refresh=0 / rc_lookahead=60 / rc=2pass / mbtree=1 / bitrate=2085 / ratetol=1.0 / qcomp=0.60 / qpmin=0 / qpmax=69 / qpstep=4 / cplxblur=20.0 / qblur=0.5 / ip_ratio=1.40 / aq=1:1.00
Default : Да
Forced : НетАудио
Идентификатор : 2
Формат : AC-3
Формат/Информация : Audio Coding 3
Расширение режима : CM (complete main)
Параметр Endianness формата : Big
Идентификатор кодека : A_AC3
Продолжительность : 1 ч. 24 м.
Вид битрейта : Постоянный
Битрейт : 192 Кбит/сек
Каналы : 2 канала
Расположение каналов : Front: L R
Частота : 48,0 КГц
Частота кадров : 31,250 кадров/сек (1536 spf)
Метод сжатия : С потерями
Размер потока : 116 Мбайт (8%)
Язык : Russian
Default : Да
Forced : НетМеню
00:00:00.000 : :Chapter 01
00:07:27.530 : :Chapter 02
00:14:51.307 : :Chapter 03
00:21:00.008 : :Chapter 04
00:28:21.282 : :Chapter 05
00:33:49.652 : :Chapter 06
00:41:45.753 : :Chapter 07
00:47:44.862 : :Chapter 08
00:56:09.032 : :Chapter 09
01:02:58.065 : :Chapter 10
01:06:30.736 : :Chapter 11
01:16:22.119 : :Chapter 12
01:24:30.356 : :Chapter 13

Скриншот c названием фильма

Скриншоты

-Трейлер
Яндекс.Метрика
Рейтинг@Mail.ru