Атлантик-Сити / Atlantic City (Луи Маль / Louis Malle) [1980 г., драма, мелодрама, криминал, HDRip] Dub Sub (Rus)

 

Создавать темы 09-Авг-2016 03:39

-Атлантик-Сити / Atlantic City-- Производство: Канада, Франция, Canadian Film Development Corporation (CFDC), Cine-Neighbor Inc., Famous Players Limited, International Cinema Corporation (ICC), Selta Films
Год выпуска: 1980 г.
Жанр: драма, мелодрама, криминал
Продолжительность: 01:44:55Мировая премьера: 2 сентября 1980
Дата выхода DVD: 22 октября 2009, «Cinema Prestige»
Перевод: Профессиональный (полное дублирование) [Ленфильм]
Режиссер: Луи Маль / Louis Malle-В ролях: Берт Ланкастер, Сьюзен Сарандон, Мишель Пикколи, Холлис МакЛарен, Роберт Джой, Моузас Знеймер, Роббер Гуле, Эл Уоксмен, Кейт Рид, Энгус МакИннес-Описание: Гангстер Лу ушел на покой и живет в Атлантик-Сити, такой же, как и Лас-Вегас, столице американского игорного бизнеса. Но жизнь Лу круто меняется, когда он знакомится с молодым жуликом Дэйвом, укравшем наркотики у мафии, и его бывшей женой Сэлли, работающей в одном из казино Атлантик-Сити.
Мафиози настигают и убивают Дэйва, а Лу и Сэлли попадают в самый центр событий, в которых смешалось все — любовь и деньги, наркотики и смерть…-
Качество видео: HDRip
Контейнер: AVI
Видео кодек: XviD
Аудио кодек: AC3
Видео: 720x400 (1.80:1), 24.000 fps, XviD build 73 ~1785 kbps avg, 0.26 bit/pixel
Аудио: 48 kHz, AC3 Dolby Digital, 2/0 (L,R) ch, ~192 kbps
Cубтитры: русские
Формат субтитров: softsub (SSA/ASS)
Доп. информация о субтитрах: внешние

Награды

3 приза «Гений» в Канаде — за работу художника, главную (Сьюзен Сэрендон) и второплановую (Кейт Рид) женские роли, «Давид» Донателло» в Италии лучшему иностранному актёру (Бёрт Ланкастер), включён в 2003 году в США в Национальный регистр фильмов
Оскар, 1982 год
Номинации (5):
Лучший фильм
Лучшая мужская роль (Берт Ланкастер)
Лучшая женская роль (Сьюзен Сарандон)
Лучший режиссер (Луи Маль)
Лучший сценарий
Золотой глобус, 1982 год
Номинации (3):
Лучшая мужская роль (драма) (Берт Ланкастер)
Лучший режиссер (Луи Маль)
Лучший иностранный фильм — «Канада, Франция»
Британская академия, 1982 год
Победитель (2):
Лучшая мужская роль ( Берт Ланкастер )
Лучший режиссер ( Луи Маль )
Номинации (2):
Лучший фильм
Лучший сценарий
Сезар, 1981 год
Номинации (2):
Лучший адаптированный или оригинальный сценарий
Лучший саундтрек
Венецианский кинофестиваль, 1980 год
Победитель (1):
Золотой лев

Рецензия

Если бы старость моглаБывший гангстер Лу Паскаль, некогда, по его словам, имевший дела с самим Алем Капоне, доживает свой век в Атлантик-Сити, втором после Лас-Вегаса центре игорного бизнеса. Жизнь Паскаля, в которой остались лишь воспоминаниями о прошлом, украшает разве что ежевечерний ритуал подсматривания за ещё молодой женщиной Салли, да уязвляющая честолюбие необходимость играть роль жиголо в отношениях с пожилой соседкой.Но амебное существование гангстера в отставке заканчивается в тот момент, когда судьба сводит его с Дейвом, бывшим мужем Салли, который скрывается в Атлантик-Сити от преследования разъярённых торговцев наркотиками. Спрятанные Дейвом в доме у Паскаля наркотики в одночасье делают едва сводящего концы с концами старика состоятельным человеком. Однако нечаянно свалившееся богатство не убивает искренних чувств…После более чем доброжелательного приёма в Америке «Прелестного ребёнка» (1977) дорога в Голливуд для Луи Маля была открыта. Однако, предчувствуя возможный продюсерский диктат, он предпочёл поставить свой следующий фильм на независимой канадской студии. Криминальная драма о наркоторговцах «Атлантик-Сити» превратилась у него в драму утраченных иллюзий и увядания молодости.Фильм, сделанный в мягкой «французской манере» с точными психологическими акцентами, чему немало способствовала музыка Мишеля Леграна, состоялся не в последнюю очередь благодаря двум основным актёрам — Берту Ланкастеру и Сьюзен Сэрэндон, чьё проникновенное исполнение ролей Лу и Салли превратило криминальную историю в драму тонких чувств и глубоких переживаний.В отличие от Лу Салли ещё надеется преуспеть и тем самым, как ей кажется, обрести счастье, и не желает верить, что эти грёзы всего лишь иллюзии, поскольку в этом мире всегда приходится выбирать между чисто духовными устремлениями и материальным преуспеянием. Благодаря Малю тема одиночества, поиска любви и понимания родственных душ тесно переплелась с чисто заокеанской установкой на достижение непременного успеха.

Media Info

Общее
Полное имя : D:\D\Атлантик-Сити\Atlantic City.1980.HDRip.[pirat.ca]\Atlantic City.1980.HDRip.[pirat.ca].avi
Формат : AVI
Формат/Информация : Audio Video Interleave
Размер файла : 1,46 Гбайт
Продолжительность : 1 ч. 44 м.
Общий поток : 1986 Кбит/сек
Название фильма : Atlantic City.1980.HDRip.[pirat.ca]
Программа кодирования : VirtualDubMod 1.5.10.3 (build 2550/release)
Библиотека кодирования : VirtualDubMod build 2550/releaseВидео
Идентификатор : 0
Формат : MPEG-4 Visual
Профиль формата : Advanced [email protected]/* */
Параметр BVOP формата : 1
Параметр QPel формата : Нет
Параметр GMC формата : Без точки перехода
Параметр матрицы формата : Выборочная
Идентификатор кодека : XVID
Идентификатор кодека/Подсказка : XviD
Продолжительность : 1 ч. 44 м.
Битрейт : 1785 Кбит/сек
Ширина : 720 пикселей
Высота : 400 пикселей
Соотношение сторон : 16:9
Частота кадров : 24,000 кадра/сек
Цветовое пространство : YUV
Субдискретизация насыщенности : 4:2:0
Битовая глубина : 8 бит
Тип развёртки : Прогрессивная
Метод сжатия : С потерями
Бит/(Пиксели*Кадры) : 0.258
Размер потока : 1,31 Гбайт (90%)
Библиотека кодирования : XviD 73Аудио
Идентификатор : 1
Формат : AC-3
Формат/Информация : Audio Coding 3
Расширение режима : CM (complete main)
Параметр Endianness формата : Big
Идентификатор кодека : 2000
Продолжительность : 1 ч. 44 м.
Вид битрейта : Постоянный
Битрейт : 192 Кбит/сек
Каналы : 2 канала
Расположение каналов : Front: L R
Частота : 48,0 КГц
Частота кадров : 31,250 кадров/сек (1536 spf)
Метод сжатия : С потерями
Размер потока : 144 Мбайт (10%)
Выравнивание : Разделение по промежуткам
Продолжительность промежутка : 42 мс. (1,00 видеокадр)
Время предзагрузки промежутка : 500 мс.

Скриншот c названием фильма

Скриншоты

-Трейлер
Яндекс.Метрика
Рейтинг@Mail.ru