Отряд самоубийц / Suicide Squad (Дэвид Эйр / David Ayer) [2016 г., фантастика, боевик, триллер, комедия, криминал, приключения, TeleSynch] Dub

 

Создавать темы 09-Авг-2016 03:34

-Отряд самоубийц / Suicide Squad
«Justice has a bad side»- -Производство: США / DC Comics, Warner Bros. Pictures
Год выпуска: 2016 г.
Жанр: фантастика, боевик, триллер, комедия, криминал, приключения
Продолжительность: 01:51:43Мировая премьера: 1 августа 2016
Российская премьера: 4 августа 2016, «Каро-Премьер»
Перевод: Профессиональный (полное дублирование)-Режиссер: Дэвид Эйр / David Ayer-В ролях: Марго Робби, Уилл Смит, Джаред Лето, Джай Кортни, Кара Делевинь, Джей Эрнандес, Юэль Киннаман, Виола Дэвис-Описание: Правительство решает дать команде суперзлодеев шанс на искупление. Подвох в том, что их отправляют на миссию, где они, вероятнее всего, погибнут.- -Качество видео: TeleSynch
Контейнер: AVI
Видео кодек: XviD
Аудио кодек: AC3
Видео: 720x304, 29.970 fps, 1663 Кбит/с
Аудио: 192 kb/s, 2 ch, 48.0 KHz
Cубтитры: отсутствуют

Media Info

Общее
Полное имя : Otryad.2016.D.TS.1400MB.avi
Формат : AVI
Формат/Информация : Audio Video Interleave
Размер файла : 1,46 Гбайт
Продолжительность : 1 ч. 51 м.
Общий поток : 1867 Кбит/сек
Программа кодирования : VirtualDubMod 1.5.10.2 (build 2540/release)
Библиотека кодирования : VirtualDubMod build 2540/releaseВидео
Идентификатор : 0
Формат : MPEG-4 Visual
Профиль формата : Advanced [email protected]/* */
Параметр BVOP формата : 2
Параметр QPel формата : Нет
Параметр GMC формата : Без точки перехода
Параметр матрицы формата : Выборочная
Идентификатор кодека : XVID
Идентификатор кодека/Подсказка : XviD
Продолжительность : 1 ч. 51 м.
Битрейт : 1663 Кбит/сек
Ширина : 720 пикселей
Высота : 304 пикселя
Соотношение сторон : 2,35:1
Частота кадров : 29,970 (30000/1001) кадров/сек
Цветовое пространство : YUV
Субдискретизация насыщенности : 4:2:0
Битовая глубина : 8 бит
Тип развёртки : Прогрессивная
Метод сжатия : С потерями
Бит/(Пиксели*Кадры) : 0.253
Размер потока : 1,30 Гбайт (89%)
Библиотека кодирования : XviD 1.2.1 (UTC 2008-12-04)Аудио
Идентификатор : 1
Формат : AC-3
Формат/Информация : Audio Coding 3
Расширение режима : CM (complete main)
Параметр Endianness формата : Big
Идентификатор кодека : 2000
Продолжительность : 1 ч. 51 м.
Вид битрейта : Постоянный
Битрейт : 192 Кбит/сек
Каналы : 2 канала
Расположение каналов : Front: L R
Частота : 48,0 КГц
Частота кадров : 31,250 кадров/сек (1536 spf)
Метод сжатия : С потерями
Размер потока : 153 Мбайт (10%)
Выравнивание : Разделение по промежуткам
Продолжительность промежутка : 33 мс. (1,00 видеокадр)
Время предзагрузки промежутка : 500 мс.

Скриншоты

Яндекс.Метрика
Рейтинг@Mail.ru