Рик и Морти / Rick and Morty / Сезон 1 / Серии 1-11 (11) (Пит Мишелс / Pete Michels, ...) [2013 г., мультфильм, комедия, фантастика, BDRip, 1080p] VO (Сыендук) + Original (Eng) + Sub (Rus, Eng)

 

Создавать темы 09-Авг-2016 03:32

-Рик и Морти / Rick and Morty
«Science makes sense, family doesn't»
(1 сезон)
-- Производство: США
Режиссер: Пит Мишелс / Pete Michels, Брайан Ньютон / Bryan Newton, Джон Райс / John Rice, ...
Жанр: мультфильм, комедия, фантастика
Год выпуска: 2013 г.
Продолжительность: 11x ~00:20:00Перевод: Любительский (одноголосый, закадровый) [Сыендук]
Оригинальный аудиопоток: английскийРоли озвучивали: Джастин Ройланд, Крис Парнелл, Спенсер Грэммер, Сара Чок, Кари Уолгрен, Райан Ридли, Том Кенни, Морис ЛаМарш, Фил Хендри, Брэндон Джонсон-Описание: Учёный-социопат вовлекает своего невинного внука в опасные межпространственные приключения.- - -Качество видео: BDRip
Источник: Rick.and.Morty.S01.1080p.BluRay.DD5.1.x264-NTb
Контейнер: MKV
Стандарт разрешения: 1080p
Видео кодек: H.264/AVC
Аудио кодек: AC3
Видео: 1920x1080 at 23.976 fps, ~3500 kbps avg
Аудио: Russian: 48 kHz/16-bit, AC3 5.1, ~640.00 kbps avg |Одноголосый закадровый, Сыендук|
Аудио #2: English: 48 kHz/16-bit, AC3 5.1, ~640.00 kbps avg
Аудио #3: English: 48 kHz, AC3, 2/0 (L,R) ch, ~192.00 kbps avg |Creator and Animator Audio Commentaries|
Аудио #4: English: 48 kHz, AC3, 2/0 (L,R) ch, ~192.00 kbps avg |Special Guest Commentaries (6,8 и 10 серии)|Cубтитры: Russian (Netflix), English, English SDH

Список серий

01: Пилот / Pilot
02: Пёс-газонокосильщик / Lawnmower Dog
03: Анатомический парк / Anatomy Park
04: М. Найт Шьямал-Инопланетяне! / M. Night Shaym-Aliens!
05: Мисикс и разрушение / Meeseeks and Destroy
06: Напиток Рика #9 / Rick Potion #9
07: Воспитание Газорпазорпа / Raising Gazorpazorp
08: Скандалы, Рик и расследования / Rixty Minutes
09: Надвигается нечто риканутое / Something Ricked This Way Comes
10: Близкие риконтакты риковой степени / Close Rick-counters of the Rick Kind
11: Риксованный бизнес / Ricksy Business

Знаете ли вы, что...

• В 10 серии 1-го сезона, когда Рик убегает от своих копий из других измерений, можно заметить, как из одного из порталов выпадает кружка, ручка и блокнот Стэна Пайнса, персонажа «Гравити Фолз» (2012), который теряет эти вещи в серии «Общество слепого глаза».
• Когда Рик переключает каналы с альтернативных вселенных, мелькает передача с альтернативной «Игрой престолов», где Тирион Ланнистер выше всех остальных.
• В 5 серии 1 сезона, когда Рик заманивает духов клонов родителей Морти в устройство-ловушку, можно заметить, что эта ловушка - полная копия ловушки для привидений из мультсериала «Охотники за привидениями» (1997).
• Во 2 серии 1 сезона, в сцене когда Рик и Морти попадают в сон миссис Оладушки, можно заметить двух гномов из «Гравити Фолз» (2012). Также в середине эпизода Морти смотрит мультик про кота, похожего на Гарфилда.
• В 9 серии 1 сезона присутствует персонаж-отсылка к книге Стивена Кинга «Необходимые вещи», а также к роману Рэя Брэдбери «Что-то страшное грядёт».
• 10 августа 2015 года был выпущен контент для игры Dota 2 - «Announcer Pack» с участием Рика и Морти.
• В 2007 году Джастин Ройланд нарисовал якобы новый официальный мультсериал о приключениях Дока Брауна и Марти МакФлая из трилогии «Назад в будущее», являвшийся на самом деле гротескной пародией. Позже эти персонажи стали жить своей жизнью, отделившись от своих прообразов. Автор переименовал их в Рика и Морти и сделал самостоятельный сериал (в котором, конечно, угадывается влияние известной трилогии).

Media Info

Код:
Format                      : Matroska
Format version              : Version 4 / Version 2
File size                   : 726 MiB
Duration                    : 22mn 1s
Overall bit rate            : 4 611 Kbps
Movie name                  : Рик и Морти / Rick and Morty (2013) S01E01 Пилот / Pilot
Encoded date                : UTC 2016-07-22 16:41:23
Writing application         : mkvmerge v9.3.1 ('Mask Machine') 64bit
Writing library             : libebml v1.3.4 + libmatroska v1.4.5
Attachements                : cover.jpgVideo
ID                          : 1
Format                      : AVC
Format/Info                 : Advanced Video Codec
Format profile              : [email protected]/*  */
Format settings, CABAC      : Yes
Format settings, ReFrames   : 4 frames
Codec ID                    : V_MPEG4/ISO/AVC
Duration                    : 22mn 1s
Bit rate                    : 3 048 Kbps
Width                       : 1 920 pixels
Height                      : 1 080 pixels
Display aspect ratio        : 16:9
Frame rate mode             : Constant
Frame rate                  : 23.976 fps
Color space                 : YUV
Chroma subsampling          : 4:2:0
Bit depth                   : 8 bits
Scan type                   : Progressive
Bits/(Pixel*Frame)          : 0.061
Stream size                 : 480 MiB (66%)
Title                       : MPEG-4 AVC @ ~3500 kbps - NTb
Writing library             : x264 core 142 r2479kMod dd79a61
Encoding settings           : cabac=1 / ref=4 / deblock=1:-2:-1 / analyse=0x3:0x133 / me=umh / subme=10 / psy=1 / fade_compensate=0.00 / psy_rd=0.50:0.00 / mixed_ref=1 / me_range=24 / chroma_me=1 / trellis=2 / 8x8dct=1 / cqm=0 / deadzone=21,11 / fast_pskip=1 / chroma_qp_offset=-2 / threads=12 / lookahead_threads=2 / sliced_threads=0 / nr=0 / decimate=1 / interlaced=0 / bluray_compat=0 / constrained_intra=0 / fgo=0 / bframes=8 / b_pyramid=2 / b_adapt=2 / b_bias=0 / direct=3 / weightb=1 / open_gop=0 / weightp=2 / keyint=250 / keyint_min=23 / scenecut=40 / intra_refresh=0 / rc=crf / mbtree=0 / crf=17.5000 / qcomp=0.60 / qpmin=0 / qpmax=69 / qpstep=4 / ip_ratio=1.30 / pb_ratio=1.20 / aq=1:0.50 / zones=3068,3175,crf=14
Language                    : English
Default                     : Yes
Forced                      : NoAudio #1
ID                          : 2
Format                      : AC-3
Format/Info                 : Audio Coding 3
Mode extension              : CM (complete main)
Format settings, Endianness : Big
Codec ID                    : A_AC3
Duration                    : 22mn 1s
Bit rate mode               : Constant
Bit rate                    : 640 Kbps
Channel(s)                  : 6 channels
Channel positions           : Front: L C R, Side: L R, LFE
Sampling rate               : 48.0 KHz
Bit depth                   : 16 bits
Compression mode            : Lossy
Stream size                 : 101 MiB (14%)
Title                       : AC3 5.1 @ 640 Kbps -  Одноголосый закадровый, Сыендук
Language                    : Russian
Default                     : Yes
Forced                      : NoAudio #2
ID                          : 3
Format                      : AC-3
Format/Info                 : Audio Coding 3
Mode extension              : CM (complete main)
Format settings, Endianness : Big
Codec ID                    : A_AC3
Duration                    : 22mn 1s
Bit rate mode               : Constant
Bit rate                    : 640 Kbps
Channel(s)                  : 6 channels
Channel positions           : Front: L C R, Side: L R, LFE
Sampling rate               : 48.0 KHz
Bit depth                   : 16 bits
Compression mode            : Lossy
Stream size                 : 101 MiB (14%)
Title                       : AC3 5.1 @ 640 Kbps
Language                    : English
Default                     : No
Forced                      : NoAudio #3
ID                          : 4
Format                      : AC-3
Format/Info                 : Audio Coding 3
Mode extension              : CM (complete main)
Format settings, Endianness : Big
Codec ID                    : A_AC3
Duration                    : 22mn 1s
Bit rate mode               : Constant
Bit rate                    : 192 Kbps
Channel(s)                  : 2 channels
Channel positions           : Front: L R
Sampling rate               : 48.0 KHz
Bit depth                   : 16 bits
Compression mode            : Lossy
Stream size                 : 30.2 MiB (4%)
Title                       : AC3 2.0 @ 192 Kbps - Commentary with Dan Harmon, Justin Roiland and Ryan Elder
Language                    : English
Default                     : No
Forced                      : NoText #1
ID                          : 5
Format                      : UTF-8
Codec ID                    : S_TEXT/UTF8
Codec ID/Info               : UTF-8 Plain Text
Title                       : SRT - Full - Netflix
Language                    : Russian
Default                     : No
Forced                      : NoText #2
ID                          : 6
Format                      : UTF-8
Codec ID                    : S_TEXT/UTF8
Codec ID/Info               : UTF-8 Plain Text
Title                       : SRT - Full
Language                    : English
Default                     : No
Forced                      : NoText #3
ID                          : 7
Format                      : UTF-8
Codec ID                    : S_TEXT/UTF8
Codec ID/Info               : UTF-8 Plain Text
Title                       : SRT - Full SDH
Language                    : English
Default                     : No
Forced                      : NoMenu
00:00:00.000                : en:Chapter 1
00:02:07.961                : en:Chapter 2
00:02:39.826                : en:Chapter 3
00:08:35.348                : en:Chapter 4
00:21:35.461                : en:Chapter 5

Скриншот c названием мультфильма

Скриншоты

НЕ рекомендуется для семейного просмотра с детьми.
Яндекс.Метрика
Рейтинг@Mail.ru