Подглядывающий / L'uomo che guarda / The Voyeur (Тинто Брасс / Tinto Brass) [1994 г., драма, эротика, BDRip] [18+] DVO

 

Создавать темы 09-Авг-2016 03:30

-Подглядывающий / L'uomo che guarda / The Voyeur / 18+-- Производство: Италия, Erre Cinematograsica S.r.l., Rodeo Drive
Год выпуска: 1994 г.
Жанр: драма, эротика
Продолжительность: 01:43:05Мировая премьера: 27 января 1994
Дата выхода DVD: 30 октября 2003, «Союз-Видео»
Перевод: Профессиональный (двухголосый, закадровый)
Режиссер: Тинто Брасс / Tinto Brass-В ролях: Катарина Василисса, Франческо Казале, Кристина Гаравалья, Рафаэлла Оффидани, Антонио Салинес, Элеонора Де Грасси, Габри Креа, Мартина Брошар, Франко Бранчароли-Описание: Это фильм о том, что дарит нам высшее наслаждение и боль. Он может помочь понять, как уменьшить боль, а не понравится он разве что ханже и живому мертвецу. Стремясь избавиться от страданий из-за разрыва с любимой женой. Эдуардо твердит стихи Бодлера: «Будь проклят тот кретин, кто впервые смешал воедино любовь и честь». Он уверен: то, что общество выводит за рамки дозволенного, является важнейшей частью человеческой жизни.-
Качество видео: BDRip
Контейнер: AVI
Видео кодек: XviD
Аудио кодек: AC3
Видео: 720x400 (1.80:1), 23.976 fps, XviD build 73 ~1632 kbps avg, 0.24 bit/pixel
Аудио: 48 kHz, AC3 Dolby Digital, 3/2 (L,C,R,l,r) + LFE ch, ~384 kbps
Cубтитры: отсутствуют

Рецензия

Моя любимая классика забытого вами великого кинематографа. 90 часть.Пойдем, скажем, ему, что мы будем жить с ним.
Ладно, пойдем…
Подглядывающий (я люблю этот фильм)У итальянского режиссера Тинто Брасса есть три фильма, про которые я не могу писать плохо. Первый фильм это «Ключ». Второй фильм это «Любовь моя». Ну и третий фильм это «Подглядывающий». Эти фильмы я очень сильно люблю еще с раннего детства. Я считаю, что Тинто Брасс снял настоящие классические итальянские шедевры эротического кинематографа. А сейчас я бы хотел немного рассказать про фильм «Подглядывающий».Когда мои друзья в школе бегали по улицам, я смотрел эротику и в частности фильмы Тинто Брасса. Я вырос на эротическом и порнографическом кинематографе. Однажды поздно вечером по телевизору показывали фильм «Подглядывающий». Конечно, я его посмотрел и получил от фильма большое удовольствие. Самый главный плюс фильма это то, что он очень сильно возбуждает. Тут не надо стесняться перед нами ведь настоящая эротика с элементами драмы, а эротика, прежде всего, должна возбуждать. Точка.Еще мне показалось, что фильм получился немного сложным. Просто в фильме очень много умных мыслей. Главный герой Додо живет в большой квартире вместе со своим престарелым отцом и развратной служанкой. Еще он женат, но жена от него ушла по непонятным даже Додо причинам. Главный герой пытается узнать, почему так получилось и конечно в самом конце он узнает ответ. Вот примерно такой сюжет у этой картины.Конечно, фильм у Тинто Брасса получился очень откровенный. В некоторых местах он даже переходит грань эротики и скатывается в порнографию, но за это я еще больше люблю этот откровенный и умный фильм. Тинто Брасс специально пригласил актеров, которые уже играли в откровенных фильмах, чтобы все выглядело естественно. Особенно конечно порадовал итальянский актер Франко Бранчароли. Он играл у Брасса в фильме «Ключ». Ну и конечно хотел бы отметить актрису Катарину Василиссу. Ну, очень красивая девушка. Она, конечно, внесла определенный вклад в мою любовь к женским попам. Только ради нее уже можно посмотреть этот фильм.Перед нами уже классический шедевр. Советовать его всем подряд я не буду. Вообще Тинто Брасс снимает фильмы не для всех людей. Просто его фильмы в России сделали настоящим мейнстримом, а ведь Тинто Брасс автор и художник. Я хотел бы посоветовать посмотреть этот фильм всем почитателям творчества Тинто Брасса. Это очень сильный фильм. Шедевр.Спасибо.10 из 10

Media Info

Общее
Полное имя : J:\Подглядывающий\Podgljadyvayushy.1994.BDRip.DVO.[pirat.ca].avi
Формат : AVI
Формат/Информация : Audio Video Interleave
Размер файла : 1,46 Гбайт
Продолжительность : 1 ч. 43 м.
Общий поток : 2026 Кбит/сек
Название фильма : Podgljadyvayushy.1994.BDRip.DVO.[pirat.ca]
Программа кодирования : VirtualDubMod 1.5.10.3 | www.virtualdub-fr.org || (build 2550/release)Видео
Идентификатор : 0
Формат : MPEG-4 Visual
Профиль формата : Advanced [email protected]/* */
Параметр BVOP формата : 1
Параметр QPel формата : Нет
Параметр GMC формата : Без точки перехода
Параметр матрицы формата : Выборочная
Идентификатор кодека : XVID
Идентификатор кодека/Подсказка : XviD
Продолжительность : 1 ч. 43 м.
Битрейт : 1633 Кбит/сек
Ширина : 720 пикселей
Высота : 400 пикселей
Соотношение сторон : 16:9
Частота кадров : 23,976 (23976/1000) кадра/сек
Цветовое пространство : YUV
Субдискретизация насыщенности : 4:2:0
Битовая глубина : 8 бит
Тип развёртки : Прогрессивная
Метод сжатия : С потерями
Бит/(Пиксели*Кадры) : 0.236
Размер потока : 1,18 Гбайт (81%)
Библиотека кодирования : XviD 73Аудио
Идентификатор : 1
Формат : AC-3
Формат/Информация : Audio Coding 3
Расширение режима : CM (complete main)
Параметр Endianness формата : Big
Идентификатор кодека : 2000
Продолжительность : 1 ч. 43 м.
Вид битрейта : Постоянный
Битрейт : 384 Кбит/сек
Каналы : 6 каналов
Расположение каналов : Front: L C R, Side: L R, LFE
Частота : 48,0 КГц
Частота кадров : 31,250 кадров/сек (1536 spf)
Метод сжатия : С потерями
Размер потока : 283 Мбайт (19%)
Выравнивание : Разделение по промежуткам
Продолжительность промежутка : 42 мс. (1,00 видеокадр)
Время предзагрузки промежутка : 500 мс.

Скриншот c названием фильма

Скриншоты

-Трейлер
Яндекс.Метрика
Рейтинг@Mail.ru