[ Сегодня на трекере фрилич! Идет свободное скачивание без начисления Download ]

В последний раз / The Last Time (Майкл Калео / Michael Caleo) [2006 г., триллер, драма, комедия, DVDRip-AVC] MVO [R5 "Парадиз"] + Sub (Rus)

 

Создавать темы 09-Авг-2016 03:26

-В последний раз / The Last Time-- Производство: США, Element Films, Train A Comin' Productions Inc.
Год выпуска: 2006 г.
Жанр: триллер, драма, комедия
Продолжительность: 01:32:43Мировая премьера: 5 октября 2006
Дата выхода DVD: 2 октября 2008, «Парадиз»
Перевод: Профессиональный (многоголосый, закадровый) [R5 "Парадиз"]
Режиссер: Майкл Калео / Michael Caleo-В ролях: Майкл Китон, Брендан Фрейзер, Эмбер Валлетта, Джордж Антон, Barbara Balentine, Аллен Бадрикс, Феликс Дж. Бойл, Кристи Шалэр, Томас Кроуфорд, Алексис Крус, ...-Описание: Преуспевающий бизнесмен Тед берёт в помощники молодого клерка Джейми, приехавшего в Нью-Йорк в поисках лучшей жизни, и вскоре страстно влюбляется в его невесту Белису. Под влиянием нахлынувшего на него чувства циничный и прагматичный деляга становится мягким и доверчивым и постепенно теряет жизненную хватку, которая всегда способствовала его успеху в бизнесе. Ведь любовь, быть может, загорелась в его судьбе в последний раз…-
Качество видео: DVDRip-AVC
Контейнер: MKV
Видео кодек: MPEG4 AVC
Аудио кодек: AC3
Видео: 1024x436, 3500 kbps, 25 fps
Аудио: AC-3, 6 ch, 448 kbps, 48,0 kHz
Cубтитры: русские
Формат субтитров: softsub (SRT)
Доп. информация о субтитрах: включаемые

Рецензия

Неожиданная концовкаФильм заставляет задуматься, пересмотреть некоторые взгляды на жизнь. Здесь противопоставляются два совершенно разных характера: добряк, который хочет всем угодить, и одержимый мнением других людей о себе, вместо того, чтобы заботиться о своей жене, которая нуждается в его поддержке; другой же, напротив, циник, который неплохо разбирается в жизни, и не верящий в какую-то мистическую удачу. Многим второй тип покажется плохим героем, который всех посылает, постоянно злой, да еще и как-то умудрился увести невесту у своего напарника. Но если посмотреть на это не поверхностно, а с более тонкой стороны, то становятся ясными все его поступки.Конец фильма конечно неожиданный, но это никак не в минус. Фильм придется по душе людям, сильным духом, которые умеют анализировать происходящее, а не просто смотреть через оболочку экрана.10 из 10

Media Info

Общее
Уникальный идентификатор : 196103476076960638989921695454539391966 (0x938827DA7B1E4F538D0DC2560EFDA3DE)
Полное имя : F:\В последний раз\V posledniy raz.2006.DVDRip-AVC.[pirat.ca].mkv
Формат : Matroska
Версия формата : Version 2
Размер файла : 2,56 Гбайт
Продолжительность : 1 ч. 32 м.
Общий поток : 3949 Кбит/сек
Дата кодирования : UTC 2016-08-07 08:37:58
Программа кодирования : mkvmerge v5.3.0 ('I could have danced') built on Feb 9 2012 10:38:07
Библиотека кодирования : libebml v1.2.3 + libmatroska v1.3.0Видео
Идентификатор : 1
Формат : AVC
Формат/Информация : Advanced Video Codec
Профиль формата : [email protected]/* */
Параметр CABAC формата : Да
Параметр ReFrames формата : 12 кадров
Идентификатор кодека : V_MPEG4/ISO/AVC
Продолжительность : 1 ч. 32 м.
Битрейт : 3500 Кбит/сек
Ширина : 1024 пикселя
Высота : 436 пикселей
Соотношение сторон : 2,35:1
Режим частоты кадров : Постоянный
Частота кадров : 25,000 кадров/сек
Цветовое пространство : YUV
Субдискретизация насыщенности : 4:2:0
Битовая глубина : 8 бит
Тип развёртки : Прогрессивная
Бит/(Пиксели*Кадры) : 0.314
Размер потока : 2,22 Гбайт (87%)
Библиотека кодирования : x264 core 146 r2538 121396c
Настройки программы : cabac=1 / ref=12 / deblock=1:-3:-3 / analyse=0x3:0x133 / me=umh / subme=11 / psy=1 / psy_rd=1.00:0.00 / mixed_ref=1 / me_range=32 / chroma_me=1 / trellis=2 / 8x8dct=1 / cqm=0 / deadzone=21,11 / fast_pskip=0 / chroma_qp_offset=-2 / threads=12 / lookahead_threads=2 / sliced_threads=0 / nr=0 / decimate=0 / interlaced=0 / bluray_compat=0 / constrained_intra=0 / bframes=12 / b_pyramid=2 / b_adapt=2 / b_bias=0 / direct=3 / weightb=1 / open_gop=0 / weightp=2 / keyint=250 / keyint_min=25 / scenecut=40 / intra_refresh=0 / rc=2pass / mbtree=0 / bitrate=3500 / ratetol=1.0 / qcomp=0.60 / qpmin=0 / qpmax=69 / qpstep=4 / cplxblur=20.0 / qblur=0.5 / ip_ratio=1.40 / pb_ratio=1.30 / aq=1:0.80
Язык : English
Default : Нет
Forced : НетАудио
Идентификатор : 2
Формат : AC-3
Формат/Информация : Audio Coding 3
Расширение режима : CM (complete main)
Параметр Endianness формата : Big
Идентификатор кодека : A_AC3
Продолжительность : 1 ч. 32 м.
Вид битрейта : Постоянный
Битрейт : 448 Кбит/сек
Каналы : 6 каналов
Расположение каналов : Front: L C R, Side: L R, LFE
Частота : 48,0 КГц
Частота кадров : 31,250 кадров/сек (1536 spf)
Метод сжатия : С потерями
Размер потока : 297 Мбайт (11%)
Заголовок : MVO
Язык : Russian
Default : Нет
Forced : НетТекст
Идентификатор : 3
Формат : UTF-8
Идентификатор кодека : S_TEXT/UTF8
Идентификатор кодека/Информация : UTF-8 Plain Text
Язык : Russian
Default : Нет
Forced : Нет

Скриншот c названием фильма

Скриншоты

-Трейлер
Яндекс.Метрика
Рейтинг@Mail.ru