[ Сегодня на трекере фрилич! Идет свободное скачивание без начисления Download ]

(Rock)Queen - The Works - 1984 (2011) [Ape, image +.cue, lossless]

 

Создавать темы 09-Авг-2016 03:11

-Queen - The Works--
Год издания: 1984 (2011)
Страна: UK
Жанр: Rock
Продолжительность: 00:37:36-Лейбл издания: Island Records
Страна-выпуска диска: EU
Номер по каталогу: 2771762-Формат: Ape
Битрейт аудио: Lossless
Тип рипа: image +.cue
Наличие сканов в содержимом раздачи: да
-The Works - одиннадцатый студийный альбом британской рок-группы Queen, выпущенный 27 февраля 1984 года. Альбом получился разнообразным по стилю и ярким по содержанию: с мощными, тяжёлыми и быстрыми номерами. По - настоящему талантливые музыканты обладают даром выразить себя в музыке в её многообразии,что очень прекрасно. Приятного прослушивания и всем хорошего настроения.

Трэклист


01. Radio Ga Ga (5:50)
02. Tear It Up (3:29)
03. It's a Hard Life (4:09)
04. Man on the Prowl (3:31)
05. Machines(or'Back to Humans') (5:11)
06. I Want to Break Free (3:21)
07. Keep Passing the Open Windows (5:23)
08. Hammer to Fall (4:29)
09. Is This the World We Created...? (2:14)
-

Лог создания рипа

Код:
Exact Audio Copy V0.99 prebeta 5 from 4. May 2009EAC extraction logfile from 5. August 2016, 7:08Queen / The WorksUsed drive  : ASUS    DRW-20B1ST   Adapter: 3  ID: 0Read mode               : Secure
Utilize accurate stream : Yes
Defeat audio cache      : Yes
Make use of C2 pointers : NoRead offset correction                      : 6
Overread into Lead-In and Lead-Out          : No
Fill up missing offset samples with silence : Yes
Delete leading and trailing silent blocks   : No
Null samples used in CRC calculations       : Yes
Used interface                              : Native Win32 interface for Win NT & 2000Used output format              : Monkey's Audio Lossless Encoder
Selected bitrate                : High Lossless Compression
Quality                         : High
Add ID3 tag                     : No
Command line compressor         : C:\Program Files (x86)\Monkey's Audio\MAC.exe
Additional command line options :  %source% %dest% -c3000
Use compression offset          : 0TOC of the extracted CD     Track |   Start  |  Length  | Start sector | End sector
---------------------------------------------------------
1  |  0:00.00 |  5:50.01 |         0    |    26250
2  |  5:50.01 |  3:28.64 |     26251    |    41914
3  |  9:18.65 |  4:08.53 |     41915    |    60567
4  | 13:27.43 |  3:30.55 |     60568    |    76372
5  | 16:58.23 |  5:10.40 |     76373    |    99662
6  | 22:08.63 |  3:21.04 |     99663    |   114741
7  | 25:29.67 |  5:22.65 |    114742    |   138956
8  | 30:52.57 |  4:28.53 |    138957    |   159109
9  | 35:21.35 |  2:14.22 |    159110    |   169181Range status and errorsSelected range     Filename E:\Queen - The Works.wav     Peak level 100.0 %
Range quality 100.0 %
Copy CRC 830074E0
Copy OKNo errors occurredAccurateRip summaryTrack  1  accurately ripped (confidence 18)  [BFF54FD4]
Track  2  accurately ripped (confidence 19)  [0DF4A46F]
Track  3  accurately ripped (confidence 19)  [1A2489C8]
Track  4  accurately ripped (confidence 19)  [7CDF5CD7]
Track  5  accurately ripped (confidence 19)  [97DCE194]
Track  6  accurately ripped (confidence 18)  [3646B6FD]
Track  7  accurately ripped (confidence 19)  [79E99E73]
Track  8  accurately ripped (confidence 19)  [1986035B]
Track  9  accurately ripped (confidence 19)  [DA824D1C]All tracks accurately rippedEnd of status report

Индексная карта (non-compilant .cue)

REM GENRE Rock
REM DATE 1984
REM DISCID 5608CF09
REM COMMENT "ExactAudioCopy v0.99pb5"
PERFORMER "Queen"
TITLE "The Works"
FILE "Queen - The Works.ape" WAVE
TRACK 01 AUDIO
TITLE "Radio Ga Ga"
PERFORMER Queen
INDEX 01 00:00:00
TRACK 02 AUDIO
TITLE "Tear It Up"
PERFORMER Queen
INDEX 00 05:48:17
INDEX 01 05:50:01
TRACK 03 AUDIO
TITLE "It's a Hard Life"
PERFORMER Queen
INDEX 00 09:14:48
INDEX 01 09:18:65
TRACK 04 AUDIO
TITLE "Man on the Prowl"
PERFORMER Queen
INDEX 00 13:25:63
INDEX 01 13:27:43
TRACK 05 AUDIO
TITLE "Machines(or'Back to Humans')"
PERFORMER Queen
INDEX 00 16:53:16
INDEX 01 16:58:23
TRACK 06 AUDIO
TITLE "I Want to Break Free "
PERFORMER Queen
INDEX 00 22:05:29
INDEX 01 22:08:63
TRACK 07 AUDIO
TITLE "Keep Passing the Open Windows"
PERFORMER Queen
INDEX 00 25:27:46
INDEX 01 25:29:67
TRACK 08 AUDIO
TITLE "Hammer to Fall"
PERFORMER Queen
INDEX 00 30:50:70
INDEX 01 30:52:57
TRACK 09 AUDIO
TITLE "Is This the World We Created...?  "
PERFORMER Queen
INDEX 00 35:18:15
INDEX 01 35:21:35
--
Яндекс.Метрика
Рейтинг@Mail.ru