Ужасы интернета / Bad Internet / Сезон: 01 (Мэттью Поллок / Matthew Pollock) [2016 г., Комедия, WEBRip, 720p] DVO (Ozz) [+ Original (Eng)]

 

Создавать темы 08-Авг-2016 06:03

-Ужасы интернета / Bad Internet-- Производство: США / Big Breakfast
Жанр: Комедия
Год выпуска: 2016 г.
Продолжительность: ~00:10:00 серияМировая премьера: 25 мая 2016
Перевод: Профессиональный (двухголосый, закадровый) [Ozz]
Оригинальный аудиопоток: английскийРежиссер: Мэттью Поллок / Matthew Pollock, Тим Уилкерсон / Tim Wilkerson-В ролях: Grant O'Brien, Зак Ояма, Шиван Томпсон, Брендан Калеб Калтон, Ирен Чои, Адам Коновер, Celeste DeAstis, Джоэнна Гоуинг, Ларри Хэнкин, James Herda-Описание: «Ужасы интернета» является пародией на технологические антиутопии вроде «Черного зеркала» и повествует о наихудших вариантах развития событий при использовании интернета.-
Качество видео: WEBRip
Контейнер: MKV
Стандарт разрешения: 720p
Видео кодек: x.264
Аудио кодек: AC3
Видео: 1280x536, 23,976 кадра/сек, AVC, 1695 Кбит/сек
Аудио: AC3, 2 канала, 192 Кбит/сек [Русский]
Аудио #2: AC3, 2 канала, 192 Кбит/сек [Английский]Cубтитры: отсутствуют

Рецензия

buffy__2002По сути данный сериал поднимает перед зрителями те же вопросы, которые поставил сериал "Чёрное Зеркало".С появлением интернета изменилось мышление человечества, появляются новые страхи, или скорее они проявляются в новой форме. Только в этом сериале данный аспект обстёбывается, чем он для меня лично и является примечательным.Так же сериал является пародией на популярные фильмы. Стёб над тестами в интернете, над рекламой, над войной блоггеров, над приложениями. Одним словом на всё, что так знакомы всем пользователям.Сериал советую смотреть всем любителям подобного жанра.

Media Info

Общее
Уникальный идентификатор : 209979528129932502599949585540715869245 (0x9DF8960A372145F281BD41A4EAF3743D)
Полное имя : \Bad.Internet.2016\Bad.Internet.S01E01.720p.WEBRip.Rus.Eng.Ozz.mkv
Формат : Matroska
Версия формата : Version 4 / Version 2
Размер файла : 181 Мбайт
Продолжительность : 11 м.
Общий поток : 2121 Кбит/сек
Дата кодирования : UTC 2016-06-03 11:09:01
Программа кодирования : mkvmerge v6.3.0 ('You can't stop me!') built on Jun 28 2013 20:09:41
Библиотека кодирования : libebml v1.3.0 + libmatroska v1.4.0Видео
Идентификатор : 1
Формат : AVC
Формат/Информация : Advanced Video Codec
Профиль формата : [email protected]/* */
Параметр CABAC формата : Да
Параметр ReFrames формата : 10 кадров
Идентификатор кодека : V_MPEG4/ISO/AVC
Продолжительность : 11 м.
Битрейт : 1695 Кбит/сек
Ширина : 1280 пикселей
Высота : 536 пикселей
Соотношение сторон : 2,40:1
Режим частоты кадров : Постоянный
Частота кадров : 23,976 (24000/1001) кадра/сек
Цветовое пространство : YUV
Субдискретизация насыщенности : 4:2:0
Битовая глубина : 8 бит
Тип развёртки : Прогрессивная
Бит/(Пиксели*Кадры) : 0.103
Размер потока : 145 Мбайт (80%)
Библиотека кодирования : x264 core 148 r2638 7599210
Настройки программы : cabac=1 / ref=10 / deblock=1:-2:-2 / analyse=0x3:0x133 / me=umh / subme=9 / psy=1 / psy_rd=1.00:0.00 / mixed_ref=1 / me_range=16 / chroma_me=1 / trellis=2 / 8x8dct=1 / cqm=0 / deadzone=21,11 / fast_pskip=1 / chroma_qp_offset=-2 / threads=12 / lookahead_threads=2 / sliced_threads=0 / nr=0 / decimate=1 / interlaced=0 / bluray_compat=0 / constrained_intra=0 / bframes=8 / b_pyramid=2 / b_adapt=2 / b_bias=0 / direct=3 / weightb=1 / open_gop=0 / weightp=2 / keyint=240 / keyint_min=23 / scenecut=40 / intra_refresh=0 / rc_lookahead=60 / rc=crf / mbtree=1 / crf=19.0 / qcomp=0.60 / qpmin=0 / qpmax=69 / qpstep=4 / vbv_maxrate=50000 / vbv_bufsize=62500 / crf_max=0.0 / nal_hrd=none / filler=0 / ip_ratio=1.40 / aq=1:0.90
Default : Да
Forced : НетАудио #1
Идентификатор : 2
Формат : AC-3
Формат/Информация : Audio Coding 3
Расширение режима : CM (complete main)
Параметр Endianness формата : Big
Идентификатор кодека : A_AC3
Продолжительность : 11 м.
Вид битрейта : Постоянный
Битрейт : 192 Кбит/сек
Каналы : 2 канала
Расположение каналов : Front: L R
Частота : 48,0 КГц
Частота кадров : 31,250 кадров/сек (1536 spf)
Метод сжатия : С потерями
Размер потока : 16,4 Мбайт (9%)
Заголовок : DVO Ozz-tv
Язык : Russian
Default : Да
Forced : НетАудио #2
Идентификатор : 3
Формат : AC-3
Формат/Информация : Audio Coding 3
Расширение режима : CM (complete main)
Параметр Endianness формата : Big
Идентификатор кодека : A_AC3
Продолжительность : 11 м.
Вид битрейта : Постоянный
Битрейт : 192 Кбит/сек
Каналы : 2 канала
Расположение каналов : Front: L R
Частота : 48,0 КГц
Частота кадров : 31,250 кадров/сек (1536 spf)
Метод сжатия : С потерями
Размер потока : 16,4 Мбайт (9%)
Язык : English
Default : Нет
Forced : НетТекст
Идентификатор : 4
Формат : UTF-8
Идентификатор кодека : S_TEXT/UTF8
Идентификатор кодека/Информация : UTF-8 Plain Text
Заголовок : Trotteville
Язык : Russian
Default : Нет
Forced : Нет

Скриншот c названием фильма

Скриншоты

-Трейлер
Яндекс.Метрика
Рейтинг@Mail.ru