Белоснежка и Охотник 2 / The Huntsman: Winter's War (Седрик Николя-Троян / Cedric Nicolas-Troyan) [2016 г., фэнтези, боевик, драма, приключения, BDRip, 1080p] [Extended Cut] Dub (Blu-ray) + Original (Eng) + Sub (Rus, Ukr, Eng)

 

Создавать темы 08-Авг-2016 05:54

-Белоснежка и Охотник 2 / The Huntsman: Winter's War
«The story before Snow White»
-- Производство: США
Год выпуска: 2016 г.
Жанр: фэнтези, боевик, драма, приключения
Продолжительность: 02:00:10Перевод: Профессиональный (полное дублирование) [Blu-ray EUR]
Оригинальный аудиопоток: английскийРежиссер: Седрик Николя-Троян / Cedric Nicolas-Troyan-В ролях: Крис Хемсворт, Шарлиз Терон, Джессика Честейн, Эмили Блант, Ник Фрост, Роб Брайдон, Шеридан Смит, Александра Роуч, Сопе Дирису, Сэм Хэзелдайн-Описание: Когда любовь уходит, сердце прекрасной девы обращается в лед. И даже сотни королевств не смогут сдержать поступь ее несметного воинства. Лишь Охотник не ведает страха. Сквозь проклятый лес он идет навстречу своей судьбе.- - -Качество видео: BDRip
Источник: The Huntsman: Winter's War 2016 2-in-1 Blu-ray EUR 1080p AVC DTS-HD MA 7.1-EMLHDTEAM-JATO
Контейнер: MKV
Стандарт разрешения: 1080p
Видео кодек: H.264/AVC
Аудио кодек: DTS, AC3
Видео: 1920x804 at 23.976 fps, ~14.4 Mbps avg
Аудио: Russian: 48 kHz, DTS, 3/2 (L,C,R,l,r) + LFE ch, ~768.00 kbps avg |Дубляж, Blu-ray EUR|
Аудио #2: English: 48 kHz, DTS, 3/2 (L,C,R,l,r) + LFE ch, ~1536.00 kbps avg
Аудио #3: English: 48 kHz, DTS Headphone:X, 2/0 (L,R) ch, ~384.00 kbps avg
Aудио #4: English: 48 kHz, AC3, 2/0 (L,R) ch, ~192.00 kbps avg |Feature Commentary by director Cedric Nicolas-Troyan|Cубтитры: Russian (Blu-ray EUR), Ukrainian (Blu-ray EUR), Russian (Blu-ray EUR, Commentary), English, English (SDH), English (Commentary)

Знаете ли вы, что...

• Надпись рунами, которая на мгновение появляется в трейлере, означает «Я вижу».
• В первом трейлере к фильму звучит композиция «Castle» певицы Halsey.
• Фрейя - в германо-скандинавской мифологии богиня любви, волшебства и смерти. Согласно мифам, она вышла за Ода, который однажды пропал без вести. Фрейя искала его по всему свету, в каждой стране беря себе новое имя, но так и не нашла любимого. Богиня стала плакать слезами, которые превращались в золото. Её собственная потеря расположила богиню ко всем влюблённым смертным.
• Исполнитель главной роли Крис Хемсворт получил известность в роли скандинавского бога Тора в фильмах кинематографической вселенной «Marvel». Персонаж актрисы Эмили Блант носит имя Фрейя (ещё одно имя из скандинавского пантеона).
• Шорт-лист режиссёров для съёмок фильма, составленный компанией 'Universal Pictures', включал следующие имена: Фрэнк Дарабонт, Гэвин О'Коннор и Андрес Мускетти. Контракт был подписан с Дарабонтом, однако фильм в конце концов снял Седрик Николя-Троян, а Дарабонт просто приложил руку к работе над сценарием. На съёмках фильма 'Белоснежка и охотник' (2012) Николя-Троян работал над спецэффектами и был режиссёром второго плана.
• В трейлере сказано, что продюсер Джо Рот создал «Малефисенту» (2014) и «Алису в стране чудес» (2010), фильмы студии «Disney», в то время как «Белоснежка и охотник 2» - это проект студии «Universal Pictures». Всё это - художественные фильмы по мотивам сказок.
• Съёмки фильма проходили, в частности, в деревушке Френшем в Великобритании, там же, где снимался и первый фильм.
• Некоторые эпизоды фильма, показанные в трейлере, сняты в городке Уэлс в графстве Сомерсет.
• Персонаж воительницы Сары в исполнении Джессики Честейн упоминается в фильме «Белоснежка и охотник», где её называют покойной женой охотника.

Media Info

Код:
Format                      : Matroska
Format version              : Version 2
File size                   : 14.7 GiB
Duration                    : 2h 0mn
Overall bit rate            : 17.6 Mbps
Movie name                  : The Huntsman: Winter's War (2016) [Extended Cut] - Release for HDCLUB
Encoded date                : UTC 2016-08-07 08:00:55
Writing application         : mkvmerge v3.4.0 ('Rapunzel') built on May 15 2010 09:38:20
Writing library             : libebml v0.8.0 + libmatroska v0.9.0Video
ID                          : 1
Format                      : AVC
Format/Info                 : Advanced Video Codec
Format profile              : [email protected]/*  */
Format settings, CABAC      : Yes
Format settings, ReFrames   : 5 frames
Codec ID                    : V_MPEG4/ISO/AVC
Duration                    : 2h 0mn
Bit rate                    : 14.4 Mbps
Width                       : 1 920 pixels
Height                      : 804 pixels
Display aspect ratio        : 2.40:1
Frame rate mode             : Constant
Frame rate                  : 23.976 fps
Color space                 : YUV
Chroma subsampling          : 4:2:0
Bit depth                   : 8 bits
Scan type                   : Progressive
Bits/(Pixel*Frame)          : 0.388
Stream size                 : 12.1 GiB (82%)
Title                       : The Huntsman: Winter's War (2016) [Extended Cut] - Release for HDCLUB
Writing library             : x264 core 148 r2705+54 9f484c1 t_mod_Custom [[email protected]/*  */ X86]
Encoding settings           : cabac=1 / ref=5 / deblock=1:-3:-3 / analyse=0x3:0x133 / me=umh / subme=11 / psy=1 / fade_compensate=0.00 / psy_rd=1.00:0.00 / mixed_ref=1 / me_range=64 / chroma_me=1 / trellis=2 / 8x8dct=1 / cqm=0 / deadzone=21,11 / fast_pskip=0 / chroma_qp_offset=-2 / threads=25 / lookahead_threads=4 / sliced_threads=0 / nr=0 / decimate=0 / interlaced=0 / bluray_compat=0 / constrained_intra=0 / fgo=0 / bframes=8 / b_pyramid=2 / b_adapt=2 / b_bias=0 / direct=3 / weightb=1 / open_gop=0 / weightp=2 / keyint=250 / keyint_min=23 / scenecut=40 / intra_refresh=0 / rc_lookahead=120 / rc=crf / mbtree=0 / crf=16.4000 / qcomp=0.65 / qpmin=0:0:0 / qpmax=69:69:69 / qpstep=4 / vbv_maxrate=62500 / vbv_bufsize=50000 / crf_max=0.0 / nal_hrd=none / filler=0 / ip_ratio=1.30 / pb_ratio=1.20 / aq=3:0.85 / aq-sensitivity=10.00 / aq-factor=1.00:1.00:1.00 / aq2=0 / aq3=0
Language                    : English
Default                     : Yes
Forced                      : NoAudio #1
ID                          : 2
Format                      : DTS
Format/Info                 : Digital Theater Systems
Mode                        : 16
Format settings, Endianness : Big
Codec ID                    : A_DTS
Duration                    : 2h 0mn
Bit rate mode               : Constant
Bit rate                    : 768 Kbps
Channel(s)                  : 6 channels
Channel positions           : Front: L C R, Side: L R, LFE
Sampling rate               : 48.0 KHz
Bit depth                   : 24 bits
Compression mode            : Lossy
Stream size                 : 660 MiB (4%)
Title                       : DTS 5.1 @ 768 kbps - DUB, Blu-ray EUR
Language                    : Russian
Default                     : Yes
Forced                      : NoAudio #2
ID                          : 3
Format                      : DTS
Format/Info                 : Digital Theater Systems
Mode                        : 16
Format settings, Endianness : Big
Codec ID                    : A_DTS
Duration                    : 2h 0mn
Bit rate mode               : Constant
Bit rate                    : 1 509 Kbps
Channel(s)                  : 6 channels
Channel positions           : Front: L C R, Side: L R, LFE
Sampling rate               : 48.0 KHz
Bit depth                   : 24 bits
Compression mode            : Lossy
Delay relative to video     : 11ms
Stream size                 : 1.27 GiB (9%)
Title                       : DTS 5.1 @ 1536 kbps
Language                    : English
Default                     : No
Forced                      : NoAudio #3
ID                          : 4
Format                      : DTS
Format/Info                 : Digital Theater Systems
Mode                        : 16
Format settings, Endianness : Big
Codec ID                    : A_DTS
Duration                    : 2h 0mn
Bit rate mode               : Constant
Bit rate                    : 384 Kbps
Channel(s)                  : 2 channels
Channel positions           : Front: L R
Sampling rate               : 48.0 KHz
Bit depth                   : 24 bits
Compression mode            : Lossy
Stream size                 : 330 MiB (2%)
Title                       : DTS Headphone:X 2.0 @ 384 kbps
Language                    : English
Default                     : No
Forced                      : NoAudio #4
ID                          : 5
Format                      : AC-3
Format/Info                 : Audio Coding 3
Format profile              : Dolby Digital
Mode extension              : CM (complete main)
Format settings, Endianness : Big
Codec ID                    : A_AC3
Duration                    : 2h 0mn
Bit rate mode               : Constant
Bit rate                    : 192 Kbps
Channel(s)                  : 2 channels
Channel positions           : Front: L R
Sampling rate               : 48.0 KHz
Bit depth                   : 16 bits
Compression mode            : Lossy
Stream size                 : 165 MiB (1%)
Title                       : AC3 2.0 @ 192 kbps - Feature Commentary by director Cedric Nicolas-Troyan
Language                    : English
Default                     : No
Forced                      : NoText #1
ID                          : 6
Format                      : UTF-8
Codec ID                    : S_TEXT/UTF8
Codec ID/Info               : UTF-8 Plain Text
Title                       : Blu-ray EUR
Language                    : Russian
Default                     : No
Forced                      : NoText #2
ID                          : 7
Format                      : UTF-8
Codec ID                    : S_TEXT/UTF8
Codec ID/Info               : UTF-8 Plain Text
Title                       : Blu-ray EUR
Language                    : Ukrainian
Default                     : No
Forced                      : NoText #3
ID                          : 8
Format                      : UTF-8
Codec ID                    : S_TEXT/UTF8
Codec ID/Info               : UTF-8 Plain Text
Title                       : Blu-ray EUR, Commentary
Language                    : Russian
Default                     : No
Forced                      : NoText #4
ID                          : 9
Format                      : UTF-8
Codec ID                    : S_TEXT/UTF8
Codec ID/Info               : UTF-8 Plain Text
Language                    : English
Default                     : No
Forced                      : NoText #5
ID                          : 10
Format                      : UTF-8
Codec ID                    : S_TEXT/UTF8
Codec ID/Info               : UTF-8 Plain Text
Title                       : SDH
Language                    : English
Default                     : No
Forced                      : NoText #6
ID                          : 11
Format                      : UTF-8
Codec ID                    : S_TEXT/UTF8
Codec ID/Info               : UTF-8 Plain Text
Title                       : Commentary
Language                    : English
Default                     : No
Forced                      : NoMenu
00:00:00.000                : en:00:00:00.000
00:06:26.428                : en:00:06:26.428
00:09:26.858                : en:00:09:26.858
00:15:03.194                : en:00:15:03.194
00:21:33.501                : en:00:21:33.501
00:30:17.858                : en:00:30:17.858
00:36:08.166                : en:00:36:08.166
00:40:55.661                : en:00:40:55.661
00:46:56.439                : en:00:46:56.439
00:52:05.748                : en:00:52:05.748
00:59:35.530                : en:00:59:35.530
01:04:23.943                : en:01:04:23.943
01:11:16.689                : en:01:11:16.689
01:15:19.223                : en:01:15:19.223
01:22:42.833                : en:01:22:42.833
01:28:15.206                : en:01:28:15.206
01:33:58.007                : en:01:33:58.007
01:39:21.956                : en:01:39:21.956
01:48:13.904                : en:01:48:13.904
01:50:19.571                : en:01:50:19.571

Скриншот c названием фильма

Скриншоты

Яндекс.Метрика
Рейтинг@Mail.ru