[ Сегодня на трекере фрилич! Идет свободное скачивание без начисления Download ]

Thousand Foot Krutch - Running With Giants [2016 г.] (Christian Rock, Hard Rock, Nu Metal, Rap Metal) [HDTVRip, 1080p]

 

Создавать темы 08-Авг-2016 05:49

-Thousand Foot Krutch - Running With Giants-- Год выпуска: 2016 г.
Страна: Peterborough, Ontario, Canada
Жанр: Christian Rock, Hard Rock, Nu Metal, Rap Metal
Продолжительность: 04:17-Качество видео: HDTVRip
Контейнер: MKV
Стандарт разрешения: 1080p
Видео кодек: MPEG4 AVC
Аудио кодек: MP3
Видео: : 1 920 pixels x 1 080 pixels : 13.0 Mbps : 23.976 fps :
Аудио: : 275 Kbps : 2 channels : 44.1 KHz :-

Media Info

General
UniqueID : 176322813340061030148488790557281677977 (0x84A689E247E8D7AFA40F197DA9E6F299)
Complete name : H:\Thousand Foot Krutch - Running With Giants - 1080p-x264-2016\thousand_foot_krutch-running_with_giants-1080p-x264-2016.mkv
Format : Matroska
File size : 417 MiB
Duration : 4mn 17s
Overall bit rate : 13.6 Mbps
Encoded date : UTC 2016-08-04 05:49:30
Writing application : mkvmerge v9.0.1 ('Obstacles') 64bit
Writing library : libebml v1.3.3 + libmatroska v1.4.4Video
ID : 1
Format : AVC
Format/Info : Advanced Video Codec
Format profile : [email protected]/* */
Format settings, CABAC : Yes
Format settings, ReFrames : 4 frames
Codec ID : V_MPEG4/ISO/AVC
Duration : 4mn 17s
Bit rate : 13.0 Mbps
Width : 1 920 pixels
Height : 1 080 pixels
Display aspect ratio : 16:9
Frame rate : 23.976 fps
Color space : YUV
Chroma subsampling : 4:2:0
Bit depth : 8 bits
Scan type : Progressive
Bits/(Pixel*Frame) : 0.262
Stream size : 400 MiB (96%)
Writing library : x264 core 148 r2692 64f4e24
Encoding settings : cabac=1 / ref=4 / deblock=1:-2:-2 / analyse=0x3:0x113 / me=umh / subme=10 / psy=1 / psy_rd=1.00:0.00 / mixed_ref=1 / me_range=32 / chroma_me=1 / trellis=2 / 8x8dct=1 / cqm=0 / deadzone=21,11 / fast_pskip=1 / chroma_qp_offset=-2 / threads=12 / lookahead_threads=1 / sliced_threads=0 / nr=0 / decimate=1 / interlaced=0 / bluray_compat=0 / constrained_intra=0 / bframes=3 / b_pyramid=2 / b_adapt=2 / b_bias=0 / direct=3 / weightb=1 / open_gop=0 / weightp=2 / keyint=250 / keyint_min=23 / scenecut=40 / intra_refresh=0 / rc_lookahead=50 / rc=crf / mbtree=1 / crf=17.0 / qcomp=0.60 / qpmin=0 / qpmax=69 / qpstep=4 / ip_ratio=1.40 / aq=1:1.00
Language : EnglishAudio
ID : 2
Format : MPEG Audio
Format version : Version 1
Format profile : Layer 3
Mode : Joint stereo
Codec ID : A_MPEG/L3
Codec ID/Hint : MP3
Duration : 4mn 9s
Bit rate mode : Variable
Bit rate : 275 Kbps
Minimum bit rate : 32.0 Kbps
Channel(s) : 2 channels
Sampling rate : 44.1 KHz
Compression mode : Lossy
Video delay : -158ms
Stream size : 8.18 MiB (2%)
Writing library : LAME3.98r
Encoding settings : -m j -V 0 -q 0 -lowpass 19.5 --vbr-new -b 32
-

Скриншоты

--
Яндекс.Метрика
Рейтинг@Mail.ru