Garbage - Empty [2016 г.] (Alternative Rock, Electronic Rock, Industrial Rock, Trip Hop, Grunge) [HDTVRip, 1080p]

 

Создавать темы 08-Авг-2016 05:48

-Garbage - Empty-- Год выпуска: 2016 г.
Страна: Madison, Wisconsin, United States
Жанр: Alternative Rock, Electronic Rock, Industrial Rock, Trip Hop, Grunge
Продолжительность: 04:00-Качество видео: HDTVRip
Контейнер: MKV
Стандарт разрешения: 1080p
Видео кодек: MPEG4 AVC
Аудио кодек: MP3
Видео: : 1 920 pixels x 1 080 pixels : 10.5 Mbps : 23.976 fps :
Аудио: : 320 Kbps : 2 channels : 44.1 KHz :-

Media Info

General
UniqueID : 228734515649275836307986033746964307910 (0xAC14AA51204414BB867838EB92C6DFC6)
Complete name : H:\Garbage - Empty - 1080p-x264-2016\garbage-empty-1080p-x264-2016.mkv
Format : Matroska
File size : 317 MiB
Duration : 4mn 0s
Overall bit rate : 11.0 Mbps
Encoded date : UTC 2016-08-06 00:50:14
Writing application : mkvmerge v9.0.1 ('Obstacles') 64bit
Writing library : libebml v1.3.3 + libmatroska v1.4.4Video
ID : 1
Format : AVC
Format/Info : Advanced Video Codec
Format profile : [email protected]/* */
Format settings, CABAC : Yes
Format settings, ReFrames : 4 frames
Codec ID : V_MPEG4/ISO/AVC
Duration : 4mn 0s
Bit rate : 10.5 Mbps
Width : 1 920 pixels
Height : 1 080 pixels
Display aspect ratio : 16:9
Frame rate : 23.976 fps
Color space : YUV
Chroma subsampling : 4:2:0
Bit depth : 8 bits
Scan type : Progressive
Bits/(Pixel*Frame) : 0.211
Stream size : 301 MiB (95%)
Writing library : x264 core 148 r2692 64f4e24
Encoding settings : cabac=1 / ref=4 / deblock=1:-2:-2 / analyse=0x3:0x113 / me=umh / subme=10 / psy=1 / psy_rd=1.00:0.00 / mixed_ref=1 / me_range=32 / chroma_me=1 / trellis=2 / 8x8dct=1 / cqm=0 / deadzone=21,11 / fast_pskip=1 / chroma_qp_offset=-2 / threads=12 / lookahead_threads=1 / sliced_threads=0 / nr=0 / decimate=1 / interlaced=0 / bluray_compat=0 / constrained_intra=0 / bframes=3 / b_pyramid=2 / b_adapt=2 / b_bias=0 / direct=3 / weightb=1 / open_gop=0 / weightp=2 / keyint=250 / keyint_min=23 / scenecut=40 / intra_refresh=0 / rc_lookahead=50 / rc=crf / mbtree=1 / crf=18.0 / qcomp=0.60 / qpmin=0 / qpmax=69 / qpstep=4 / ip_ratio=1.40 / aq=1:1.00
Language : EnglishAudio
ID : 2
Format : MPEG Audio
Format version : Version 1
Format profile : Layer 3
Mode : Joint stereo
Codec ID : A_MPEG/L3
Codec ID/Hint : MP3
Duration : 3mn 54s
Bit rate mode : Constant
Bit rate : 320 Kbps
Channel(s) : 2 channels
Sampling rate : 44.1 KHz
Compression mode : Lossy
Video delay : 3s 842ms
Stream size : 8.95 MiB (3%)
Writing library : LAME3.99
Encoding settings : -m j -V 4 -q 0 -lowpass 20.5
-

Скриншоты

--
Яндекс.Метрика
Рейтинг@Mail.ru