[ Сегодня на трекере фрилич! Идет свободное скачивание без начисления Download ]

Книга джунглей / The Jungle Book (2016) BDRip [H.264/1080p] [Line]

 

Создавать темы 07-Авг-2016 23:25

- Книга джунглей / The Jungle Book (2016) BDRip [H.264/1080p] [Line] - Производство: США / Fairview Entertainment, Moving Picture Company (MPC), Walt Disney Pictures
Жанр: Фэнтези, Драма, Приключения, Семейный
Режиссер: Джон Фавро
Продюсер: Джон Фавро, Бригхэм Тейлор, Молли Аллен
Актеры: Скарлетт Йоханссон, Идрис Эльба, Билл Мюррей, Бен Кингсли, Кристофер Уокен, Джанкарло Эспозито, Лупита Нионго Эмджей, Энтони, Нил Сетхи, Брэндон Хеншель
Описание:
Непримиримая борьба с опасным и внушающим страх тигром Шерханом вынуждает Маугли покинуть волчью стаю и отправиться в захватывающее путешествие. На пути мальчика ждут удивительные открытия и запоминающиеся встречи с пантерой Багирой, медведем Балу, питоном Каа и другими обитателями дремучих джунглей.-
Возраст: 12+ (зрителям, достигшим 12 лет)
Рейтинг MPAA: PG (рекомендуется присутствие родителей)
Дата мировой премьеры: 7 апреля 2016
Дата премьеры в России: 14 апреля 2016, «WDSSPR» 3D

Релиз от: NNMCLUB
Продолжительность: 01:45:54
Качество видео: BDRip (batonchik)
Перевод: Дублированный (чистый звук)
Субтитры: английский
Видео: AVC, 1920x1036 (1,85:1), ~12873 kbps, 23,976 fps, [url=mailto:[email protected]][email protected][/url]
Аудио 1: AC3, 6 ch, 640 kbps | русский (центр с Line) WetY
Аудио 2: DTS, 6 ch, 1509 kbps | английский

h.264 log:

--[Information] [07.08.2016 14:42:36] Standard error stream
---[Information] [07.08.2016 14:42:44] raw [info]: 1920x1036p 1:1 @ 24000/1001 fps (cfr)
---[Information] [07.08.2016 14:42:44] x264 [info]: using SAR=1/1
---[Information] [07.08.2016 14:42:44] x264 [info]: using cpu capabilities: MMX2 SSE2Fast SSSE3 SSE4.2 AVX
---[Information] [07.08.2016 14:42:44] x264 [info]: profile High, level 4.1
---[Information] [07.08.2016 22:26:51] x264 [info]: frame I:1075 Avg QP:14.75 size:381877
---[Information] [07.08.2016 22:26:51] x264 [info]: frame P:41555 Avg QP:17.92 size:130323
---[Information] [07.08.2016 22:26:51] x264 [info]: frame B:109729 Avg QP:20.62 size: 40062

---[Information] [07.08.2016 22:26:51] x264 [info]: consecutive B-frames: 5.6% 4.5% 16.0% 25.9% 13.3% 31.5% 2.2% 0.5% 0.5%
---[Information] [07.08.2016 22:26:51] x264 [info]: mb I I16..4: 6.2% 82.3% 11.5%
---[Information] [07.08.2016 22:26:51] x264 [info]: mb P I16..4: 1.6% 19.6% 1.5% P16..4: 36.5% 18.4% 15.9% 1.3% 0.6% skip: 4.7%
---[Information] [07.08.2016 22:26:51] x264 [info]: mb B I16..4: 0.1% 3.0% 0.3% B16..8: 36.0% 9.7% 2.6% direct:10.1% skip:38.2% L0:38.4% L1:41.0% BI:20.6%
---[Information] [07.08.2016 22:26:51] x264 [info]: 8x8 transform intra:86.3% inter:61.5%
---[Information] [07.08.2016 22:26:51] x264 [info]: direct mvs spatial:97.2% temporal:2.8%
---[Information] [07.08.2016 22:26:51] x264 [info]: coded y,uvDC,uvAC intra: 88.8% 84.8% 61.8% inter: 32.0% 31.3% 10.8%
---[Information] [07.08.2016 22:26:51] x264 [info]: i16 v,h,dc,p: 30% 14% 14% 42%
---[Information] [07.08.2016 22:26:51] x264 [info]: i8 v,h,dc,ddl,ddr,vr,hd,vl,hu: 11% 12% 10% 8% 11% 11% 12% 12% 14%
---[Information] [07.08.2016 22:26:51] x264 [info]: i4 v,h,dc,ddl,ddr,vr,hd,vl,hu: 10% 10% 5% 8% 14% 13% 14% 11% 14%
---[Information] [07.08.2016 22:26:51] x264 [info]: i8c dc,h,v,p: 50% 20% 17% 12%
---[Information] [07.08.2016 22:26:51] x264 [info]: Weighted P-Frames: Y:2.5% UV:1.4%
---[Information] [07.08.2016 22:26:51] x264 [info]: ref P L0: 53.3% 13.1% 23.1% 8.4% 2.1% 0.0%
---[Information] [07.08.2016 22:26:51] x264 [info]: ref B L0: 86.3% 11.3% 2.4%
---[Information] [07.08.2016 22:26:51] x264 [info]: ref B L1: 93.7% 6.3%
---[Information] [07.08.2016 22:26:51] x264 [info]: kb/s:12868.75
---[Information] [07.08.2016 22:26:51] encoded 152359 frames, 5.47 fps, 12868.75 kb/s
--[Information] [07.08.2016 22:26:53] Final statistics
---[Information] [07.08.2016 22:26:53] Video Bitrate Desired: 12873 kbit/s
---[Information] [07.08.2016 22:26:53] Video Bitrate Obtained (approximate): 12870 kbit/s

Mediainfo:

Общее
Полное имя : \Книга джунглей_The Jungle Book.2016.BDRip.1080p.ru.en.NNMCLUB.mkv
Формат : Matroska
Версия формата : Version 2
Размер файла : 11,1 Гбайт
Продолжительность : 1 ч. 45 м.
Общий поток : 15,0 Мбит/сек
Название фильма : Книга джунглей_The Jungle Book.2016.BDRip.1080p.ru.en.NNMCLUB
Дата кодирования : UTC 2016-08-07 20:32:23
Программа кодирования : mkvmerge v7.7.0 ('Six Voices') 64bit built on Feb 28 2015 23:39:33
Библиотека кодирования : libebml v1.3.1 + libmatroska v1.4.2
Видео
Идентификатор : 1
Формат : AVC
Формат/Информация : Advanced Video Codec
Профиль формата : [url=mailto:[email protected]][email protected][/url]
Параметр CABAC формата : Да
Параметр ReFrames формата : 4 кадра
Идентификатор кодека : V_MPEG4/ISO/AVC
Продолжительность : 1 ч. 45 м.
Битрейт : 12,9 Мбит/сек
Ширина : 1920 пикселей
Высота : 1036 пикселей
Соотношение сторон : 1,85:1
Режим частоты кадров : Постоянный
Частота кадров : 23,976 (24000/1001) кадра/сек
Цветовое пространство : YUV
Субдискретизация насыщенности : 4:2:0
Битовая глубина : 8 бит
Тип развёртки : Прогрессивная
Бит/(Пиксели*Кадры) : 0.270
Размер потока : 9,30 Гбайт (84%)
Заголовок : Книга джунглей_The Jungle Book.2016.BDRip.1080p.ru.en.NNMCLUB
Библиотека кодирования : x264 core 148 r2638 7599210
Настройки программы : cabac=1 / ref=4 / deblock=1:-3:-3 / analyse=0x3:0x133 / me=umh / subme=10 / psy=1 / psy_rd=1.00:0.15 / mixed_ref=1 / me_range=24 / chroma_me=1 / trellis=2 / 8x8dct=1 / cqm=0 / deadzone=21,11 / fast_pskip=0 / chroma_qp_offset=-3 / threads=12 / lookahead_threads=2 / sliced_threads=0 / nr=0 / decimate=1 / interlaced=0 / bluray_compat=0 / constrained_intra=0 / bframes=8 / b_pyramid=2 / b_adapt=2 / b_bias=0 / direct=3 / weightb=1 / open_gop=0 / weightp=2 / keyint=250 / keyint_min=23 / scenecut=40 / intra_refresh=0 / rc_lookahead=40 / rc=2pass / mbtree=1 / bitrate=12873 / ratetol=1.0 / qcomp=0.60 / qpmin=0 / qpmax=69 / qpstep=4 / cplxblur=20.0 / qblur=0.5 / vbv_maxrate=50000 / vbv_bufsize=62500 / nal_hrd=none / filler=0 / ip_ratio=1.40 / aq=1:0.80
Язык : English
Default : Да
Forced : Нет
Цветовой диапазон : Limited
Коэффициенты матрицы : BT.709
Аудио #1
Идентификатор : 2
Формат : AC-3
Формат/Информация : Audio Coding 3
Расширение режима : CM (complete main)
Параметр Endianness формата : Big
Идентификатор кодека : A_AC3
Продолжительность : 1 ч. 45 м.
Вид битрейта : Постоянный
Битрейт : 640 Кбит/сек
Каналы : 6 каналов
Расположение каналов : Front: L C R, Side: L R, LFE
Частота : 48,0 КГц
Частота кадров : 31,250 кадров/сек (1536 spf)
Метод сжатия : С потерями
Размер потока : 485 Мбайт (4%)
Заголовок : Дубляж 5.1ch (центр с Line) WetY
Язык : English
Default : Да
Forced : Да
Аудио #2
Идентификатор : 3
Формат : DTS
Формат/Информация : Digital Theater Systems
Режим : 16
Параметр Endianness формата : Big
Идентификатор кодека : A_DTS
Продолжительность : 1 ч. 45 м.
Вид битрейта : Постоянный
Битрейт : 1509 Кбит/сек
Каналы : 6 каналов
Расположение каналов : Front: L C R, Side: L R, LFE
Частота : 48,0 КГц
Частота кадров : 93,750 кадра/сек (512 spf)
Битовая глубина : 24 бит
Метод сжатия : С потерями
Размер потока : 1,12 Гбайт (10%)
Язык : English
Default : Нет
Forced : Нет
Текст
Идентификатор : 4
Формат : UTF-8
Идентификатор кодека : S_TEXT/UTF8
Идентификатор кодека/Информация : UTF-8 Plain Text
Язык : English
Default : Нет
Forced : Нет
Меню
00:00:00.000 : en:Chapter 01
00:00:48.214 : en:Chapter 02
00:05:15.315 : en:Chapter 03
00:09:02.458 : en:Chapter 04
00:12:42.178 : en:Chapter 05
00:16:34.451 : en:Chapter 06
00:21:20.028 : en:Chapter 07
00:27:15.133 : en:Chapter 08
00:35:04.143 : en:Chapter 09
00:43:21.724 : en:Chapter 10
00:48:05.132 : en:Chapter 11
00:53:29.247 : en:Chapter 12
00:58:03.271 : en:Chapter 13
01:05:46.442 : en:Chapter 14
01:10:35.522 : en:Chapter 15
01:17:01.325 : en:Chapter 16
01:20:48.927 : en:Chapter 17
01:24:46.539 : en:Chapter 18
01:30:32.969 : en:Chapter 19
01:35:53.205 : en:Chapter 20
Скриншоты:
Вся "Книга джунглей" в Клубе
Яндекс.Метрика
Рейтинг@Mail.ru