План Мэгги / Maggie's Plan (2015) HDRip | Лицензия

 

Создавать темы 07-Авг-2016 17:44

-План Мэгги / Maggie's Plan (2015) HDRip | Лицензия-Название: План Мэгги
Оригинальное название: Maggie's Plan-Год выхода: 2015-Жанр: Драма, мелодрама, комедия-Режиссер: Ребекка Миллер-В ролях: Трэвис Фиммел, Итэн Хоук, Джулианна Мур, Билл Хейдер, Грета Гервиг, Майя Рудольф, Уоллес Шон, Мина Сандвол, Кэтлин Ханна, Алекс Морф-О фильме: Мэгги хочет стать матерью и планирует прибегнуть к искусственному оплодотворению, но её планы нарушаются, когда она знакомится с антропологом Джоном, состоящим в несчастливом браке с Жоржеттой. Мэгги выходит замуж за Джона, но через какое-то время начинает чувствовать себя несчастной, и у неё возникает новый план.- -Страна: США
Студия: Franklin Street, Freedom Media, Hyperion Media Group, Locomotive, Round Films
Продолжительность: 01:38:52
Перевод: Профессиональный, многоголосый [Лицензия]
Субтитры: Нет
Семпл
Файл
Кодек: XviD
Качество: HDRip
Видео: 672x368 (1.83:1), 23.976 fps, XviD build 73 ~915 kbps avg, 0.15 bit/pixel
Звук: 48 kHz, MPEG Layer 3, 2 ch, ~128.00 kbps avg

MediaInfo

Общее
Полное имя : Maggie.s.Plan.2015.HDRip.Portablius.avi
Формат : AVI
Формат/Информация : Audio Video Interleave
Размер файла : 745 Мбайт
Продолжительность : 1 ч. 38 м.
Общий поток : 1053 Кбит/сек
Программа кодирования : VirtualDubMod 1.5.10.3 | www.virtualdub-fr.org || (build 2550/release)
Библиотека кодирования : VirtualDubMod build 2550/release
Видео
Идентификатор : 0
Формат : MPEG-4 Visual
Профиль формата : Advanced [email protected]
Параметр BVOP формата : 1
Параметр QPel формата : Нет
Параметр GMC формата : Без точки перехода
Параметр матрицы формата : Выборочная
Идентификатор кодека : XVID
Идентификатор кодека/Подсказка : XviD
Продолжительность : 1 ч. 38 м.
Битрейт : 916 Кбит/сек
Ширина : 672 пикселя
Высота : 368 пикселей
Соотношение сторон : 1,85:1
Частота кадров : 23,976 (23976/1000) кадра/сек
Цветовое пространство : YUV
Субдискретизация насыщенности : 4:2:0
Битовая глубина : 8 бит
Тип развёртки : Прогрессивная
Метод сжатия : С потерями
Бит/(Пиксели*Кадры) : 0.154
Размер потока : 648 Мбайт (87%)
Библиотека кодирования : XviD 73
Аудио
Идентификатор : 1
Формат : MPEG Audio
Версия формата : Version 1
Профиль формата : Layer 3
Идентификатор кодека : 55
Идентификатор кодека/Подсказка : MP3
Продолжительность : 1 ч. 38 м.
Вид битрейта : Постоянный
Битрейт : 128 Кбит/сек
Каналы : 2 канала
Частота : 48,0 КГц
Метод сжатия : С потерями
Размер потока : 90,5 Мбайт (12%)
Выравнивание : Соединение по промежуткам
Продолжительность промежутка : 42 мс. (1,00 видеокадр)
Время предзагрузки промежутка : 504 мс.
Библиотека кодирования : LAME3.99r
Настройки программы : -m s -V 4 -q 2 -lowpass 17 -b 128

Скриншоты

Яндекс.Метрика
Рейтинг@Mail.ru