Варкрафт / Warcraft (Дункан Джонс / Duncan Jones) [2016 г., фэнтези, боевик, приключения, WEB-DL, 1080p] [WEB-DL [1080p] ATV, Релиз подготовлен для просмотра на Apple TV, iPad, iPhone, iPod Touch.] Dub [ПИФАГОР 2016] + Dub [ПИФАГОР 2 + Original (Eng)

 

Создавать темы 06-Авг-2016 03:29

-Варкрафт / Warcraft / WEB-DL [1080p] ATV, Релиз подготовлен для просмотра на Apple TV, iPad, iPhone, iPod Touch.-- Производство: США, Китай, Канада, Япония, Atlas Entertainment, Blizzard Entertainment, Legendary Pictures, Universal Pictures, ...
Год выпуска: 2016 г.
Жанр: фэнтези, боевик, приключения
Продолжительность: 02:03:06Мировая премьера: 24 мая 2016
Российская премьера: 26 мая 2016, «UPI»
Перевод: Профессиональный (полное дублирование) [ПИФАГОР 2016]
Перевод 3: Профессиональный (полное дублирование) [ПИФАГОР 2016]
Оригинальный аудиопоток: английскийРежиссер: Дункан Джонс / Duncan Jones-В ролях: Трэвис Фиммел, Пола Пэттон, Бен Фостер, Доминик Купер, Тоби Кеббелл, Бен Шнетцер, Роберт Казински, Клэнси Браун, Дэниэл Ву, Рут Негга-Описание: Веками магия и неприступные стены защищали людей от любых напастей. Но древнее зло, побежденное и забытое тысячелетия назад, пробудилось.
В самом сердце королевства открылся темный портал, и раса невиданных существ наводнила земли Азерота. Так начались события, призванные навсегда изменить судьбу этого мира.-
Качество видео: WEB-DL
Контейнер: MP4
Стандарт разрешения: 1080p
Видео кодек: QuickTime
Аудио кодек: AAC
Видео: H.264, 1916x784, 2.40:1, 4 501 Kbps, 23.976 fps
Аудио: AAC / 2.0 / 157 Kbps / 48.0 KHz
Аудио #2: AAC / 2.0 / 158 Kbps / 48.0 KHz
Аудио #3: AC-3 / 5.1 / 384 Kbps / 48.0 KHzCубтитры: отсутствуют

Доп. информация

Sort Name: Warcraft
XID: Apple:vendor_id:2016-277328
contentID: 1112365515
Copyright: © 2016 Universal Studios. All Rights Reserved.
Screenwriters: Чарльз Ливитт, Дункан Джонс
Producers: Стюарт Фенеган, Алекс Гартнер, Джон Дж. Джашни
Director: Дункан Джонс
Cast: Трэвис Фиммел, Пола Пэттон, Бен Фостер, Доминик Купер, Тоби Кеббелл, Бен Шнетцер, Роберт Казински, Клэнси Браун, Дэниэл Ву, Рут Негга, Илья Исаев, Марьяна Спивак, Иван Калинин, Александр Гаврилин, Андрей Казанцев
Studio: Universal Pictures
Rating: 4
Long Description: Веками магия и неприступные стены защищали людей от любых напастей. Но древнее зло, побежденное и забытое тысячелетия назад, пробудилось.
В самом сердце королевства открылся темный портал, и раса невиданных существ наводнила земли Азерота. Так начались события, призванные навсегда изменить судьбу этого мира.
Description: Веками магия и неприступные стены защищали людей от любых напастей. Но древнее зло, побежденное и забытое тысячелетия назад, пробудилось.
В самом сердце королевства открылся темный портал, и раса невиданных существ наводнила земли Азерота. Так начались события, призванные навсегда изменить судьбу этого мира.
Release Date: 2016-05-24T08:00:00Z
Genre: Action & Adventure
Artist: Duncan Jones
Name: Warcraft

Рецензия

Еще бы чуть-чуть…… и я поставил бы 8 из 10. Но нет, концовка убила во мне это желание, а жаль — фильм действительно получился годный.Помимо визуальной составляющей, которая, естественно, является столпом, основой и вообще смыслом данного фильма вообще, я отметил для себя весьма недурный сюжет (впрочем, сюжет и так уже существовал в игровой реальности), который практически не противоречит сюжету игровой серии. Да, добавлены некоторые «левые» персонажи, да, никак не объясняются причины падения Медива, не дана его предыстория, несколько искажена история того, как он был побежден. Ничего не сказано про Саргараса или мать Медива, полностью отсутствует всякое упоминание о таком важном персонаже, как Нер`Зул и т. д. Однако при всем при этом, фильм очень приятно смотреть — он не отдает дебилизмом и отсутствием логики, как многие фильмы, снятые по мотивам игр.Однако концовка, как мне кажется, подвела. Дело в том, что концовка идеально подошла бы для окончания первой части, скажем, трилогии, вроде Властелина Колец. То есть, если зритель знает, что будет продолжение, если в целом представляет себе сюжет трилогии в целом (как в случае с Властелином Колец), то ему гораздо комфортнее видеть титры в конце, когда половина сюжетных линий не до конца раскрыта. Он понимает, что все еще впереди, что все линии персонажей получат свое логическое развитие и завершение. Здесь такого ощущения нет — неясно, будут ли разработчики заниматься продолжением.А между тем, материала для продолжения — вагон и маленькая тележка! Одна история Артаса обеспечит целостный и интересный сюжет как минимум двухчасового фильма. Это не говоря уже о вторжении Пылающего Легиона и т. д. Короче, было бы желание.Будем надеяться, что продолжение последует, но за этот конкретный фильм7 из 10

Media Info

Общее
Полное имя : F:\Варкрафт\Warcraft.WEB-DL.1080p.ATV.[pirat.ca].m4v
Формат : MPEG-4
Идентификатор кодека : M4V (M4V /M4A /mp42/isom)
Размер файла : 4,48 Гбайт
Продолжительность : 2 ч. 3 м.
Режим общего битрейта : Переменный
Общий поток : 5208 Кбит/сек
Название фильма : Warcraft
Исполнитель : Duncan Jones
Режиссёр : Дункан Джонс
Исполнитель : Трэвис Фиммел / Пола Пэттон / Бен Фостер / Доминик Купер / Тоби Кеббелл / Бен Шнетцер / Роберт Казински / Клэнси Браун / Дэниэл Ву / Рут Негга / Илья Исаев / Марьяна Спивак / Иван Калинин / Александр Гаврилин / Андрей Казанцев
Сценарист : Чарльз Ливитт / Дункан Джонс
Продюсер : Стюарт Фенеган / Алекс Гартнер / Джон Дж. Джашни
Студия-производитель : Universal Pictures
Жанр : Action & Adventure
Тип содержимого : Short Film
Описание : Веками магия и неприступные стены защищали людей от любых напастей. Но древнее зло, побежденное и забытое тысячелетия назад, пробудилось. / В самом сердце королевства открылся темный портал, и раса невиданных существ наводнила земли Азерота. Так начались события, призванные навсегда изменить судьбу этого мира.
Дата записи : UTC 2016-05-24 08:00:00
Дата кодирования : UTC 2016-08-03 22:24:04
Дата пометки : UTC 2016-08-03 22:25:04
Авторское право : © 2016 Universal Studios. All Rights Reserved.
Обложка : Yes
Оценка : None
Title/Sort : Warcraft
LongDescription : Веками магия и неприступные стены защищали людей от любых напастей. Но древнее зло, побежденное и забытое тысячелетия назад, пробудилось. / В самом сердце королевства открылся темный портал, и раса невиданных существ наводнила земли Азерота. Так начались события, призванные навсегда изменить судьбу этого мира.
AppleStoreCatalogID : 1112365515
Vendor : Apple:vendor_id:2016-277328
ContentRating : mpaa|PG-13|300|Видео #1
Идентификатор : 1
Формат : AVC
Формат/Информация : Advanced Video Codec
Профиль формата : [email protected]/* */
Параметр CABAC формата : Да
Параметр ReFrames формата : 5 кадров
Идентификатор кодека : avc1
Идентификатор кодека/Информация : Advanced Video Coding
Продолжительность : 2 ч. 3 м.
Битрейт : 4501 Кбит/сек
Ширина : 1916 пикселей
Высота : 784 пикселя
Соотношение сторон : 2,40:1
Режим частоты кадров : Переменный
Частота кадров : 23,976 кадра/сек
Минимальная частота кадров : 23,810 кадра/сек
Максимальная частота кадров : 24,390 кадра/сек
Цветовое пространство : YUV
Субдискретизация насыщенности : 4:2:0
Битовая глубина : 8 бит
Тип развёртки : Прогрессивная
Бит/(Пиксели*Кадры) : 0.125
Размер потока : 3,87 Гбайт (86%)
Заголовок : Main Program
Язык : English
Дата кодирования : UTC 2016-08-03 22:24:04
Дата пометки : UTC 2016-08-03 22:24:12
Цветовой диапазон : Limited
Основные цвета : BT.709
Характеристики трансфера : BT.709
Коэффициенты матрицы : BT.709
Menus : 5,6Видео #2
Идентификатор : 6
Формат : JPEG
Идентификатор кодека : jpeg
Продолжительность : 2 ч. 3 м.
Вид битрейта : Переменный
Битрейт : 1184 бит/сек
Ширина : 640 пикселей
Высота : 261 пикселей
Соотношение сторон : 2,452
Режим частоты кадров : Переменный
Частота кадров : 0,003 кадр/сек
Минимальная частота кадров : 0,002 кадр/сек
Максимальная частота кадров : 0,006 кадр/сек
Цветовое пространство : YUV
Субдискретизация насыщенности : 4:2:0
Битовая глубина : 8 бит
Метод сжатия : С потерями
Бит/(Пиксели*Кадры) : 2.363
Размер потока : 963 Кбайт (0%)
Заголовок : Chapter Images
Язык : English
Default : Нет
Дата кодирования : UTC 2016-08-03 22:24:22
Дата пометки : UTC 2016-08-03 22:24:22
Menu For : 1Аудио #1
Идентификатор : 2
Формат : AAC
Формат/Информация : Advanced Audio Codec
Профиль формата : LC
Идентификатор кодека : 40
Продолжительность : 2 ч. 3 м.
Вид битрейта : Переменный
Битрейт : 157 Кбит/сек
Максимальный битрейт : 220 Кбит/сек
Каналы : 2 канала
Расположение каналов : Front: L R
Частота : 48,0 КГц
Частота кадров : 46,875 кадров/сек (1024 spf)
Метод сжатия : С потерями
Размер потока : 138 Мбайт (3%)
Заголовок : Russian Stereo
Язык : Russian
Default : Да
Alternate group : 1
Дата кодирования : UTC 2016-08-03 22:24:04
Дата пометки : UTC 2016-08-03 22:24:14
Fallback From : 4Аудио #2
Идентификатор : 3
Формат : AAC
Формат/Информация : Advanced Audio Codec
Профиль формата : LC
Идентификатор кодека : 40
Продолжительность : 2 ч. 1 м.
Вид битрейта : Переменный
Битрейт : 158 Кбит/сек
Максимальный битрейт : 213 Кбит/сек
Каналы : 2 канала
Расположение каналов : Front: L R
Частота : 48,0 КГц
Частота кадров : 46,875 кадров/сек (1024 spf)
Метод сжатия : С потерями
Размер потока : 137 Мбайт (3%)
Заголовок : English Stereo
Язык : English
Default : Нет
Alternate group : 1
Дата кодирования : UTC 2016-08-03 22:24:04
Дата пометки : UTC 2016-08-03 22:24:13Аудио #3
Идентификатор : 4
Формат : AC-3
Формат/Информация : Audio Coding 3
Расширение режима : CM (complete main)
Параметр Endianness формата : Big
Идентификатор кодека : ac-3
Продолжительность : 2 ч. 3 м.
Вид битрейта : Постоянный
Битрейт : 384 Кбит/сек
Каналы : 6 каналов
Расположение каналов : Front: L C R, Side: L R, LFE
Частота : 48,0 КГц
Частота кадров : 31,250 кадров/сек (1536 spf)
Битовая глубина : 16 бит
Метод сжатия : С потерями
Размер потока : 338 Мбайт (7%)
Заголовок : Russian DD 5.1
Язык : Russian
Default : Inherited From: 2
Alternate group : 1
Дата кодирования : UTC 2016-08-03 22:24:04
Дата пометки : UTC 2016-08-03 22:24:12
Fallback To : 2Меню #1
00:00:00.000 : глава 1
00:09:27.000 : глава 2
00:15:51.000 : глава 3
00:22:38.000 : глава 4
00:29:18.000 : глава 5
00:38:44.000 : глава 6
00:46:45.000 : глава 7
00:53:04.000 : глава 8
00:56:19.000 : глава 9
01:02:45.000 : глава 10
01:07:50.000 : глава 11
01:12:26.000 : глава 12
01:17:14.000 : глава 13
01:22:47.000 : глава 14
01:26:34.000 : глава 15
01:32:31.000 : глава 16
01:40:23.000 : глава 17
01:47:38.000 : глава 18
01:51:13.000 : глава 19
01:53:59.000 : глава 20Меню #2
Идентификатор : 5
Идентификатор кодека : text
Продолжительность : 2 ч. 3 м.
Язык : English
Дата кодирования : UTC 2016-08-03 22:24:14
Дата пометки : UTC 2016-08-03 22:24:14
Menu For : 1
00:00:00.000 : глава 1
00:09:27.000 : глава 2
00:15:51.000 : глава 3
00:22:38.000 : глава 4
00:29:18.000 : глава 5
00:38:44.000 : глава 6
00:46:45.000 : глава 7
00:53:04.000 : глава 8
00:56:19.000 : глава 9
01:02:45.000 : глава 10
01:07:50.000 : глава 11
01:12:26.000 : глава 12
01:17:14.000 : глава 13
01:22:47.000 : глава 14
01:26:34.000 : глава 15
01:32:31.000 : глава 16
01:40:23.000 : глава 17
01:47:38.000 : глава 18
01:51:13.000 : глава 19
01:53:59.000 : глава 20
Вид битрейта : VBR

Скриншот c названием фильма

Скриншоты

-Трейлер
Яндекс.Метрика
Рейтинг@Mail.ru