Страшилы / The Frighteners (Питер Джексон / Peter Jackson) [1996 г., ужасы, фэнтези, комедия, BDRip-AVC, 720p] MVO [Киномания]

 

Создавать темы 06-Авг-2016 03:24

-Страшилы / The Frighteners-- Производство: США, Universal Pictures, WingNut Films, ...
Год выпуска: 1996 г.
Жанр: ужасы, фэнтези, комедия
Продолжительность: 02:02:36Мировая премьера: 19 июля 1996
Дата выхода DVD: 11 апреля 2006, «Юниверсал Пикчерс Рус»
Дата выхода Blu-Ray: 29 сентября 2011, «Двадцатый Век Фокс СНГ»Перевод: Профессиональный (многоголосый, закадровый) [Киномания]
Режиссер: Питер Джексон / Peter Jackson-В ролях: Майкл Дж. Фокс /Michael J. Fox/, Трини Альварадо /Trini Alvarado/, Питер Добсон /Peter Dobson/, Джон Эстин /John Astin/, Джеффри Комбс /Jeffrey Combs/, Ди Уоллес-Стоун /Dee Wallace-Stone/, Джейк Бьюзи /Jake Busey/, Чи МакБрайд /Chi McBride/, Джим Файф /Jim Fyfe/, Трой Эванс /Troy Evans/...-Описание: Экстрасенс Фрэнк Бэннистер, который зарабатывает на жизнь тем, что за скромное вознаграждение успешно избавляет дома от полтергейста, который сам предварительно наслал, сталкивается со страшным противником — вернувшимся с того света, а вернее, задержавшимся на этом после казни, маньяком-убийцей.-
Качество видео: BDRip-AVC
Контейнер: MKV
Стандарт разрешения: 720p
Видео кодек: MPEG4 AVC
Аудио кодек: AC3
Видео: 6513 kbps; 0.333 bit/pixel; 1280 x 544; 2.35:1; 23.976 fps
Аудио: AC3 Dolby Digital; 384.00 kbps, 6 Ch - MVO
Cубтитры: отсутствуют

Доп. информация

В сцене, где принтер печатает изображение Фрэнка — фото из фильма «Назад в будущее» (1985), где тоже снимался Майкл Дж. Фокс.
Съемки фильма проходили в Новой Зеландии, в маленьком прибрежном городке Литтелтон (Lyttelton).
Питер Джексон исполнил в фильме роль-камео: герой Майкла Дж. Фокса сталкивается с режиссером, переодетым в рокера, у входа в редакцию Городской газеты.
В одном из эпизодов фильма описывается феномен Нинель Кулагиной, российской женщины обладающей паранормальными способностями.
В одной из сцен Бартлетт упоминает Андрея Чикатило, возмущаясь, что тот кичится количеством жертв.

Награды

Сатурн, 1997 год
Номинации (8):
Лучший фильм ужасов
Лучший режиссер (Питер Джексон)
Лучший актер (Майкл Дж. Фокс)
Лучший актер второго плана (Джеффри Комбс)
Лучшие спецэффекты
Лучшая музыка
Лучший сценарий
Лучший грим

Рецензия

Отличный фильм. Снятый, конечно, по всем меркам уже давно, 11 лет для кинематографа, в котором каждые полгода вводят новшества техники это очень много, но не растерявший из-за этого всю свою прелесть.В маленьком городке неожиданно начинают умирать от сердечных приступов люди, причем всех возрастов и полов, и только простой специалист по паранормальному Фрэнк видит на лбу у каждой жертвы перед смертью порядковый номер. Дальше больше, Фрэнк оказывается, не так прост, как кажется, его жена шесть лет назад была также убита и как раз после этих событий, он стал видеть и духов и все, что с ними связано.Фильм одновременно совмещает в себе почти все жанры, тут тебе и сказка, и мистика, граничащая с ужасами, и триллер с детективом, не забыли также о юморе и любовной линии. И это все переплетено довольно гармонично, я, по крайней мере, не увидела никакого подвисания сюжета и нелогичной развязки, чем страдают многие нынешние картины.К Майклу Джей Фоксу питаю самое глубокое уважение и любовь, думаю, что многие выросли на его трилогии «Назад в будущее», да и не только. Актер придает каждому персонажу, каждому фильму, в котором снимается какую-то легкость и непринужденность. И этот фильм не стал исключением, его Фрэнк Баннистер хоть и не любим многими жителями города, зато приятен своим образом.Понятно, что никакие Оскары, Золотые глобусы, Пальмовые ветви, фильм не претендовал, и не будет претендовать, зато покорил сердца многих зрителей. И если вы его еще не видели, посмотрите, зря время точно не потратите, да и обеспечите себя хорошим настроением.10 из 10

Media Info

Общее
Уникальный идентификатор : 199714991920589182860710584645278220154 (0x963FB55500BFEEEC9FF3B5E9DB57BF7A)
Полное имя : F:\Страшилы\Strashily.1996.Directors Cut.BDRip.720p.[pirat.ca].mkv
Формат : Matroska
Версия формата : Version 2
Размер файла : 5,19 Гбайт
Продолжительность : 2 ч. 2 м.
Режим общего битрейта : Переменный
Общий поток : 6064 Кбит/сек
Название фильма : The Frighteners (1996)
Дата кодирования : UTC 2016-08-04 12:37:07
Программа кодирования : mkvmerge v5.3.0 ('I could have danced') built on Feb 9 2012 10:38:07
Библиотека кодирования : libebml v1.2.3 + libmatroska v1.3.0Видео
Идентификатор : 1
Формат : AVC
Формат/Информация : Advanced Video Codec
Профиль формата : [email protected]/* */
Параметр CABAC формата : Да
Параметр ReFrames формата : 6 кадров
Идентификатор кодека : V_MPEG4/ISO/AVC
Продолжительность : 2 ч. 2 м.
Вид битрейта : Переменный
Битрейт : 5560 Кбит/сек
Максимальный битрейт : 5679 Кбит/сек
Ширина : 1280 пикселей
Высота : 544 пикселя
Соотношение сторон : 2,35:1
Режим частоты кадров : Постоянный
Частота кадров : 23,976 (24000/1001) кадра/сек
Цветовое пространство : YUV
Субдискретизация насыщенности : 4:2:0
Битовая глубина : 8 бит
Тип развёртки : Прогрессивная
Бит/(Пиксели*Кадры) : 0.333
Размер потока : 4,76 Гбайт (92%)
Default : Да
Forced : НетАудио
Идентификатор : 2
Формат : AC-3
Формат/Информация : Audio Coding 3
Расширение режима : CM (complete main)
Параметр Endianness формата : Big
Идентификатор кодека : A_AC3
Продолжительность : 2 ч. 2 м.
Вид битрейта : Постоянный
Битрейт : 384 Кбит/сек
Каналы : 6 каналов
Расположение каналов : Front: L C R, Side: L R, LFE
Частота : 48,0 КГц
Частота кадров : 31,250 кадров/сек (1536 spf)
Метод сжатия : С потерями
Размер потока : 337 Мбайт (6%)
Заголовок : MVO (Kinomania)
Язык : Russian
Default : Да
Forced : Нет

Скриншот c названием фильма

Скриншоты

-Трейлер
Яндекс.Метрика
Рейтинг@Mail.ru