Конвой / Автоколонна / Convoy (Сэм Пекинпа / Sam Peckinpah) [1978 г., Приключения, Боевик, BDRip, 576p] AVO (Алексей Михалев) + Subs (Rus)

 

Создавать темы 06-Авг-2016 03:15

Конвой / Автоколонна / Convoy«Kristofferson and MacGraw...ain't nothin' gonna get in their way!»- Год выпуска: 1978
Производство: США
Жанр: Приключения, Боевик
Продолжительность: 01:51:06Перевод: Авторский (одноголосый, закадровый) Алексей Михалев
Субтитры: русскиеРежиссер: Сэм Пекинпа / Sam PeckinpahВ ролях: Крис Кристофферсон / Kris Kristofferson, Эли МакГро / Ali MacGraw, Берт Янг / Burt Young, Мэдж Синклэр / Madge Sinclair, Фрэнклин Аджайе / Franklyn Ajaye, Брайан Дэвис / Brian Davies, Сеймур Кэссел / Seymour Cassel, Кэсси Йэйтс / Cassie Yates, Уолтер Келли / Walter Kelley, Эрнест Боргнайн / Ernest BorgnineОписание: Приятный фильм - сценарий Б. У. Л. Нортона по песне-хиту С. У. МакКолла - рассказывает о независимом водителе-дальнобойщике (Кристофферсон), стоящем во главе своих протестующих коллег и ведущем их вперед в бешеной гонке в борьбе за справедливость по Юго-Западу. Картина примитивностью сюжета напоминает бездонные глубины комиксов, но все компенсируется импонирующей, динамичной режиссурой великого Пекинпа, чей стиль не спутать ни с чем. Боргнайн в роли коррумпированного взяточника-полицейского, которому "шоферня" дала кличку "Медведь". (Иванов М.)
Торрент перезалит! Новый видео файл.
Качество видео: BDRip-AVC
Контейнер: MKV
Видео кодек: MPEG-4 AVC / H.264
Видео: 1108x472 / 2906 kbps / 23,976 fps / 2,35:1 / High Profile 4.1Аудио#1: 48 kHz, AC3 Dolby Digital, 2/0 (L,R) ch, ~192.00 kbps avg - Михалев DVD
Аудио#2: 48 kHz, AC3 Dolby Digital, 2/0 (L,R) ch, ~224.00 kbps avg - Михалев BD

Доп. информация

В релизе представлены две дорожки с переводом Алексея Михалева. Первая - синхронизированная дорожка с VHS ("нулевка"). Спасибо Nadoelo (e180.ru). Вторая, с BDRemux, в псевдостерео от HDtracker с этой же кассеты. Зачем испохабили все дороги таким образом непонятно. Звук "гуляет" по каналам. Включена для ознакомления.

Media Info

Формат : Matroska
Версия формата : Version 4 / Version 2
Размер файла : 2,59 Гбайт
Продолжительность : 1 ч. 51 м.
Общий поток : 3340 Кбит/сек
Название фильма : Convoy.1978.BDRIipAVC.Mihalev DVD.Mihalev BD.Subs -=anton966=-
Дата кодирования : UTC 2016-08-04 18:33:14
Программа кодирования : mkvmerge v8.3.0 ('Over the Horizon') 64bit
Библиотека кодирования : libebml v1.3.1 + libmatroska v1.4.2Видео
Идентификатор : 1
Формат : AVC
Формат/Информация : Advanced Video Codec
Профиль формата : [email protected]/* */
Параметр CABAC формата : Да
Параметр ReFrames формата : 11 кадров
Идентификатор кодека : V_MPEG4/ISO/AVC
Продолжительность : 1 ч. 51 м.
Битрейт : 2907 Кбит/сек
Ширина : 1108 пикселей
Высота : 472 пикселя
Соотношение сторон : 2,35:1
Режим частоты кадров : Постоянный
Частота кадров : 23,976 (24000/1001) кадра/сек
Цветовое пространство : YUV
Субдискретизация насыщенности : 4:2:0
Битовая глубина : 8 бит
Тип развёртки : Прогрессивная
Бит/(Пиксели*Кадры) : 0.232
Размер потока : 2,26 Гбайт (87%)
Библиотека кодирования : x264 core 148 r2705kMod 3f5ed56
Настройки программы : cabac=1 / ref=11 / deblock=1:-3:-3 / analyse=0x3:0x113 / me=umh / subme=11 / psy=1 / fade_compensate=0.00 / psy_rd=1.15:0.20 / mixed_ref=1 / me_range=32 / chroma_me=1 / trellis=2 / 8x8dct=1 / cqm=0 / deadzone=21,11 / fast_pskip=1 / chroma_qp_offset=-3 / threads=8 / lookahead_threads=2 / sliced_threads=0 / nr=0 / decimate=1 / interlaced=0 / bluray_compat=0 / constrained_intra=0 / fgo=0 / bframes=11 / b_pyramid=2 / b_adapt=2 / b_bias=0 / direct=1 / weightb=1 / open_gop=0 / weightp=2 / keyint=250 / keyint_min=23 / scenecut=40 / intra_refresh=0 / rc_lookahead=40 / rc=crf / mbtree=0 / crf=19.0000 / qcomp=0.60 / qpmin=0 / qpmax=69 / qpstep=4 / vbv_maxrate=50000 / vbv_bufsize=62500 / crf_max=0.0 / nal_hrd=none / filler=0 / ip_ratio=1.45 / pb_ratio=1.30 / aq=3:1.00
Язык : English
Default : Да
Forced : Нет
Цветовой диапазон : Limited
Основные цвета : BT.709
Характеристики трансфера : BT.709
Коэффициенты матрицы : BT.709Аудио #1
Идентификатор : 2
Формат : AC-3
Формат/Информация : Audio Coding 3
Расширение режима : CM (complete main)
Параметр Endianness формата : Big
Идентификатор кодека : A_AC3
Продолжительность : 1 ч. 51 м.
Вид битрейта : Постоянный
Битрейт : 192 Кбит/сек
Каналы : 2 канала
Расположение каналов : Front: L R
Частота : 48,0 КГц
Частота кадров : 31,250 кадров/сек (1536 spf)
Метод сжатия : С потерями
Размер потока : 153 Мбайт (6%)
Заголовок : Mihalev DVD
Язык : Russian
Default : Да
Forced : НетАудио #2
Идентификатор : 3
Формат : AC-3
Формат/Информация : Audio Coding 3
Расширение режима : CM (complete main)
Параметр Endianness формата : Big
Идентификатор кодека : A_AC3
Продолжительность : 1 ч. 51 м.
Вид битрейта : Постоянный
Битрейт : 224 Кбит/сек
Каналы : 2 канала
Расположение каналов : Front: L R
Частота : 48,0 КГц
Частота кадров : 31,250 кадров/сек (1536 spf)
Метод сжатия : С потерями
Размер потока : 178 Мбайт (7%)
Заголовок : Mihaleb BD
Язык : Russian
Default : Нет
Forced : НетТекст
Идентификатор : 4
Формат : PGS
Режим смешивания : zlib
Идентификатор кодека : S_HDMV/PGS
Идентификатор кодека/Информация : Picture based subtitle format used on BDs/HD-DVDs
Продолжительность : 1 ч. 49 м.
Битрейт : 15,6 Кбит/сек
Count of elements : 2582
Размер потока : 12,2 Мбайт (0%)
Язык : Russian
Default : Нет
Forced : НетМеню
00:00:00.000 : en:01 Opening Credits
00:03:09.398 : en:02 Hot On The Highway
00:09:05.295 : en:03 Speed Trap
00:13:22.926 : en:04 Roadhouse Diner
00:20:23.763 : en:05 The Fight
00:29:11.750 : en:06 Runnin' From the Bear
00:35:30.795 : en:07 Hot Pursuit
00:39:51.556 : en:08 Fun with Smokey
00:48:22.149 : en:09 Convoy
01:00:54.985 : en:10 A Cause
01:20:15.477 : en:11 Helping a Friend
01:40:18.845 : en:12 In Memory Of

log x.264

avs [info]: 1108x472p 1:1 @ 24000/1001 fps (cfr)
x264 [info]: using SAR=1/1
x264 [info]: using cpu capabilities: MMX2 SSE2Fast SSSE3 SSE4.2 AVX XOP FMA4 FMA3 LZCNT BMI1
x264 [info]: profile High, level 4.1
x264 [info]: cabac=1 ref=11 deblock=1:-3:-3 analyse=0x3:0x113 me=umh subme=11 psy=1 fade_compensate=0.00 psy_rd=1.15:0.20 mixed_ref=1 me_range=32 chroma_me=1 trellis=2 8x8dct=1 cqm=0 deadzone=21,11 fast_pskip=1 chroma_qp_offset=-3 threads=8 lookahead_threads=2 sliced_threads=0 nr=0 decimate=1 interlaced=0 bluray_compat=0 constrained_intra=0 fgo=0 bframes=11 b_pyramid=2 b_adapt=2 b_bias=0 direct=1 weightb=1 open_gop=0 weightp=2 keyint=250 keyint_min=23 scenecut=40 intra_refresh=0 rc_lookahead=40 rc=crf mbtree=0 crf=19.0000 qcomp=0.60 qpmin=0 qpmax=69 qpstep=4 vbv_maxrate=50000 vbv_bufsize=62500 crf_max=0.0 nal_hrd=none filler=0 ip_ratio=1.45 pb_ratio=1.30 aq=3:1.00
x264 [info]: frame I:1635 Avg QP:17.70 size: 76049
x264 [info]: frame P:36098 Avg QP:18.93 size: 29137
x264 [info]: frame B:122108 Avg QP:20.72 size: 10206
x264 [info]: consecutive B-frames: 2.7% 5.2% 9.0% 15.7% 18.9% 37.5% 6.0% 1.5% 1.7% 1.1% 0.5% 0.2%
x264 [info]: mb I I16..4: 9.6% 71.9% 18.5%
x264 [info]: mb P I16..4: 0.7% 13.3% 2.1% P16..4: 29.3% 37.6% 14.6% 0.0% 0.0% skip: 2.3%
x264 [info]: mb B I16..4: 0.1% 1.2% 0.4% B16..8: 41.6% 24.2% 3.6% direct: 5.0% skip:23.9% L0:41.4% L1:43.8% BI:14.7%
x264 [info]: 8x8 transform intra:78.6% inter:53.6%
x264 [info]: coded y,uvDC,uvAC intra: 93.2% 87.7% 66.6% inter: 30.1% 21.0% 4.7%
x264 [info]: i16 v,h,dc,p: 5% 26% 20% 49%
x264 [info]: i8 v,h,dc,ddl,ddr,vr,hd,vl,hu: 8% 12% 11% 9% 12% 11% 13% 10% 14%
x264 [info]: i4 v,h,dc,ddl,ddr,vr,hd,vl,hu: 9% 36% 4% 6% 10% 9% 10% 7% 10%
x264 [info]: i8c dc,h,v,p: 38% 29% 17% 16%
x264 [info]: Weighted P-Frames: Y:6.1% UV:3.7%
x264 [info]: ref P L0: 47.9% 13.8% 15.4% 5.1% 5.0% 3.2% 3.3% 1.7% 1.8% 1.3% 1.6% 0.1% 0.0%
x264 [info]: ref B L0: 79.6% 8.7% 4.0% 2.2% 1.6% 1.4% 1.1% 0.7% 0.5% 0.2%
x264 [info]: ref B L1: 96.2% 3.8%
x264 [info]: kb/s:2906.83

Скриншоты

Яндекс.Метрика
Рейтинг@Mail.ru