[ Сегодня на трекере фрилич! Идет свободное скачивание без начисления Download ]

Outlasted - Someone Like You [2016 г.] (Melodic Rock , AOR) [HD DVDRip, 720p]

 

Создавать темы 06-Авг-2016 03:01

-Outlasted - Someone Like You-- Год выпуска: 2016 г.
Страна: Norway
Жанр: Melodic Rock , AOR
Продолжительность: 03:08-Качество видео: HD DVDRip
Контейнер: MKV
Стандарт разрешения: 720p
Видео кодек: MPEG4 AVC
Аудио кодек: MP3
Видео: : 1 280 pixels x 544 pixels : 2 276 Kbps : 25.000 fps
Аудио: : 208 Kbps : 2 channels : 44.1 KHz :-

Media Info

General
UniqueID : 215707911530231961787823483800287510029 (0xA247D525A62F934EA134A867E878FE0D)
Complete name : H:\Outlasted - Someone Like You -720p-x264-2016\outlasted-someone_like_you-720p-x264-2016.mkv
Format : Matroska
File size : 57.1 MiB
Duration : 3mn 8s
Overall bit rate : 2 534 Kbps
Encoded date : UTC 2016-08-03 19:54:54
Writing application : mkvmerge v5.8.0 ('No Sleep / Pillow') built on Sep 2 2012 15:37:04
Writing library : libebml v1.2.3 + libmatroska v1.3.0Video
ID : 1
Format : AVC
Format/Info : Advanced Video Codec
Format profile : [email protected]/* */
Format settings, CABAC : Yes
Format settings, ReFrames : 5 frames
Format settings, GOP : M=1, N=16
Codec ID : V_MPEG4/ISO/AVC
Duration : 3mn 8s
Bit rate : 2 276 Kbps
Width : 1 280 pixels
Height : 544 pixels
Display aspect ratio : 2.35:1
Frame rate : 25.000 fps
Color space : YUV
Chroma subsampling : 4:2:0
Bit depth : 8 bits
Scan type : Progressive
Bits/(Pixel*Frame) : 0.131
Stream size : 51.3 MiB (90%)
Writing library : x264 core 148 r2692 64f4e24
Encoding settings : cabac=1 / ref=5 / deblock=1:-1:-1 / analyse=0x3:0x133 / me=umh / subme=9 / psy=1 / psy_rd=1.00:0.00 / mixed_ref=1 / me_range=24 / chroma_me=1 / trellis=1 / 8x8dct=1 / cqm=0 / deadzone=21,11 / fast_pskip=1 / chroma_qp_offset=-2 / threads=6 / lookahead_threads=1 / sliced_threads=0 / nr=0 / decimate=1 / interlaced=0 / bluray_compat=0 / constrained_intra=0 / bframes=16 / b_pyramid=2 / b_adapt=2 / b_bias=0 / direct=3 / weightb=1 / open_gop=0 / weightp=2 / keyint=250 / keyint_min=25 / scenecut=40 / intra_refresh=0 / rc_lookahead=60 / rc=crf / mbtree=1 / crf=18.0 / qcomp=0.60 / qpmin=0 / qpmax=69 / qpstep=4 / ip_ratio=1.40 / aq=1:1.00Audio
ID : 2
Format : MPEG Audio
Format version : Version 1
Format profile : Layer 3
Mode : Joint stereo
Mode extension : MS Stereo
Codec ID : A_MPEG/L3
Codec ID/Hint : MP3
Duration : 3mn 8s
Bit rate mode : Variable
Bit rate : 208 Kbps
Minimum bit rate : 32.0 Kbps
Channel(s) : 2 channels
Sampling rate : 44.1 KHz
Compression mode : Lossy
Stream size : 4.68 MiB (8%)
Writing library : LAME3.98r
Encoding settings : -m j -V 0 -q 0 -lowpass 19.5 --vbr-new -b 32
-

Скриншоты

-
Яндекс.Метрика
Рейтинг@Mail.ru