The Dead Weather - Impossible Winner [2016 г.] (Blues Rock, Garage Rock, Psychedelic Rock, Alternative Rock) [HDTVRip, 1080p]

 

Создавать темы 06-Авг-2016 02:59

-The Dead Weather - Impossible Winner-- Год выпуска: 2016 г.
Страна: Nashville, Tennessee, U.S.A.
Жанр: Blues Rock, Garage Rock, Psychedelic Rock, Alternative Rock
Продолжительность: 04:16-Качество видео: HDTVRip
Контейнер: MKV
Стандарт разрешения: 1080p
Видео кодек: MPEG4 AVC
Аудио кодек: MP3
Видео: : 1 920 pixels x 984 pixels : 4 893 Kbps : 23.976 fps
Аудио: : 211 Kbps : 2 channels : 44.1 KHz-

Media Info

General
UniqueID : 244497548285176420688956847366297440625 (0xB7F083D43BA5B15D8721CD573FAD5171)
Complete name : H:\перадко\The Dead Weather - Impossible Winner-1080p-x264-2016\the_dead_weather-impossible_winner-1080p-x264-2016.mkv
Format : Matroska
File size : 160 MiB
Duration : 4mn 16s
Overall bit rate : 5 208 Kbps
Encoded date : UTC 2016-08-03 06:04:19
Writing application : mkvmerge v9.0.1 ('Obstacles') 64bit
Writing library : libebml v1.3.3 + libmatroska v1.4.4Video
ID : 1
Format : AVC
Format/Info : Advanced Video Codec
Format profile : [email protected]/* */
Format settings, CABAC : Yes
Format settings, ReFrames : 4 frames
Format settings, GOP : M=4, N=32
Codec ID : V_MPEG4/ISO/AVC
Duration : 4mn 16s
Bit rate : 4 893 Kbps
Width : 1 920 pixels
Height : 984 pixels
Display aspect ratio : 1.951
Frame rate : 23.976 fps
Color space : YUV
Chroma subsampling : 4:2:0
Bit depth : 8 bits
Scan type : Progressive
Bits/(Pixel*Frame) : 0.108
Stream size : 150 MiB (94%)
Writing library : x264 core 148 r2692 64f4e24
Encoding settings : cabac=1 / ref=4 / deblock=1:-2:-2 / analyse=0x3:0x113 / me=umh / subme=10 / psy=1 / psy_rd=1.00:0.00 / mixed_ref=1 / me_range=32 / chroma_me=1 / trellis=2 / 8x8dct=1 / cqm=0 / deadzone=21,11 / fast_pskip=1 / chroma_qp_offset=-2 / threads=12 / lookahead_threads=1 / sliced_threads=0 / nr=0 / decimate=1 / interlaced=0 / bluray_compat=0 / constrained_intra=0 / bframes=3 / b_pyramid=2 / b_adapt=2 / b_bias=0 / direct=3 / weightb=1 / open_gop=0 / weightp=2 / keyint=250 / keyint_min=23 / scenecut=40 / intra_refresh=0 / rc_lookahead=50 / rc=crf / mbtree=1 / crf=19.0 / qcomp=0.60 / qpmin=0 / qpmax=69 / qpstep=4 / ip_ratio=1.40 / aq=1:1.00
Language : EnglishAudio
ID : 2
Format : MPEG Audio
Format version : Version 1
Format profile : Layer 3
Mode : Joint stereo
Mode extension : MS Stereo
Codec ID : A_MPEG/L3
Codec ID/Hint : MP3
Duration : 4mn 16s
Bit rate mode : Variable
Bit rate : 211 Kbps
Minimum bit rate : 32.0 Kbps
Channel(s) : 2 channels
Sampling rate : 44.1 KHz
Compression mode : Lossy
Video delay : -50ms
Stream size : 6.45 MiB (4%)
Writing library : LAME3.98r
Encoding settings : -m j -V 0 -q 0 -lowpass 19.5 --vbr-new -b 32
-

Скриншоты

Яндекс.Метрика
Рейтинг@Mail.ru