Варкрафт / Warcraft (2016) WEB-DLRip-AVC от ExKinoRay | iTunes Russia

 

Создавать темы 05-Авг-2016 07:50

Информация о фильме
Название: Варкрафт
Оригинальное название: Warcraft
Год выпуска: 2016
Жанр: Фэнтези, боевик, приключения
Выпущено: США, Atlas Entertainment, Blizzard Entertainment, Legendary Pictures, Universal Pictures
Режиссер: Дункан Джонс
В ролях: Трэвис Фиммел, Пола Пэттон, Бен Фостер, Доминик Купер, Тоби Кеббелл, Бен Шнетцер, Роберт Казински, Клэнси Браун, Дэниэл Ву, Рут Негга
О фильме: Первая высокобюджетная экранизация, созданная по вселенной компьютерной игре «Варкрафт». Бесчисленные орды диких орков бегут со своей гибнущей родины в новый мир, где в мирной идиллии живут племена людей и кланы волшебников. Древние силы зла смертельной угрозой нависли над землями королевства Азерот – кто выйдет победителем из решающей схватки?

Файл
Качество: WEB-DLRip (AVC)
Видео: MPEG-4 AVC, 2758 Кбит/с, 1024x420, 23.976 кадр/с
Аудио: AC3, 6 ch, 384 Кбит/с
Размер: 2.70 ГБ
Продолжительность: 02:03:06
Перевод: Дублированный
Сохранены оригинальные чаптеры как на исходном WEB-DL.
Озвучивание - Дублированное (iTunes Russia)

x264

x264 [info]: frame I:1528 Avg QP:14.64 size: 89116
x264 [info]: frame P:52273 Avg QP:18.38 size: 27577
x264 [info]: frame B:123284 Avg QP:21.19 size: 7853
x264 [info]: consecutive B-frames: 3.8% 10.2% 8.8% 66.2% 5.5% 4.6% 0.4% 0.2% 0.0% 0.1% 0.2%
x264 [info]: mb I I16..4: 5.8% 57.1% 37.1%
x264 [info]: mb P I16..4: 1.3% 13.4% 3.2% P16..4: 27.8% 29.9% 14.4% 4.2% 0.9% skip: 5.0%
x264 [info]: mb B I16..4: 0.3% 3.1% 0.8% B16..8: 29.8% 18.2% 3.5% direct: 5.6% skip:38.6% L0:34.8% L1:43.3% BI:21.9%
x264 [info]: 8x8 transform intra:73.1% inter:51.3%
x264 [info]: direct mvs spatial:96.3% temporal:3.7%
x264 [info]: coded y,uvDC,uvAC intra: 84.3% 89.6% 69.7% inter: 27.5% 21.7% 12.1%
x264 [info]: i16 v,h,dc,p: 55% 7% 5% 33%
x264 [info]: i8 v,h,dc,ddl,ddr,vr,hd,vl,hu: 11% 9% 6% 9% 12% 12% 13% 12% 16%
x264 [info]: i4 v,h,dc,ddl,ddr,vr,hd,vl,hu: 32% 7% 7% 6% 11% 10% 10% 8% 10%
x264 [info]: i8c dc,h,v,p: 38% 23% 19% 19%
x264 [info]: Weighted P-Frames: Y:9.5% UV:4.4%
x264 [info]: ref P L0: 53.6% 13.5% 13.8% 5.1% 3.6% 3.2% 2.2% 1.2% 1.1% 0.9% 0.9% 0.8% 0.2% 0.0%
x264 [info]: ref B L0: 84.0% 6.7% 4.0% 1.4% 1.2% 0.8% 0.6% 0.6% 0.3% 0.3% 0.1%
x264 [info]: ref B L1: 96.5% 3.5%
x264 [info]: kb/s:2757.56

Инфо-файл

Общее
Уникальный идентификатор : 173652102808985832823128966527700797007 (0x82A42DB03F323D2BA096B22C8B01864F)
Полное имя : D:ЗагрузкиWarcraft.2016.x264.WEB-DLRip.AVC.ExKinoRay.mkv
Формат : Matroska
Версия формата : Version 2
Размер файла : 2,70 Гбайт
Продолжительность : 2 ч. 3 м.
Общий поток : 3143 Кбит/сек
Название фильма : Варкрафт.2016.Rip by: ollan
Дата кодирования : UTC 2016-08-04 04:30:20
Программа кодирования : mkvmerge v5.6.0 ('Kenya Kane') built on May 27 2012 16:44:04
Библиотека кодирования : libebml v1.2.3 + libmatroska v1.3.0
Обложка : Yes
Attachments : Cover - Warcraft.png
Видео
Идентификатор : 1
Формат : AVC
Формат/Информация : Advanced Video Codec
Профиль формата : [email protected]
Параметр CABAC формата : Да
Параметр ReFrames формата : 12 кадров
Идентификатор кодека : V_MPEG4/ISO/AVC
Продолжительность : 2 ч. 3 м.
Битрейт : 2758 Кбит/сек
Ширина : 1024 пикселя
Высота : 420 пикселей
Соотношение сторон : 2,40:1
Режим частоты кадров : Постоянный
Частота кадров : 23,976 (24000/1001) кадра/сек
Цветовое пространство : YUV
Субдискретизация насыщенности : 4:2:0
Битовая глубина : 8 бит
Тип развёртки : Прогрессивная
Бит/(Пиксели*Кадры) : 0.267
Размер потока : 2,32 Гбайт (86%)
Библиотека кодирования : x264 core 146 r2538 121396c
Настройки программы : cabac=1 / ref=12 / deblock=1:-3:-3 / analyse=0x3:0x133 / me=umh / subme=11 / psy=1 / psy_rd=1.03:0.09 / mixed_ref=1 / me_range=48 / chroma_me=1 / trellis=2 / 8x8dct=1 / cqm=0 / deadzone=21,11 / fast_pskip=0 / chroma_qp_offset=-3 / threads=12 / lookahead_threads=3 / sliced_threads=0 / nr=0 / decimate=0 / interlaced=0 / bluray_compat=0 / constrained_intra=0 / bframes=10 / b_pyramid=2 / b_adapt=2 / b_bias=0 / direct=3 / weightb=1 / open_gop=0 / weightp=2 / keyint=240 / keyint_min=23 / scenecut=40 / intra_refresh=0 / rc_lookahead=60 / rc=2pass / mbtree=1 / bitrate=2758 / ratetol=1.0 / qcomp=0.60 / qpmin=0 / qpmax=69 / qpstep=4 / cplxblur=20.0 / qblur=0.5 / vbv_maxrate=50000 / vbv_bufsize=62500 / nal_hrd=none / filler=0 / ip_ratio=1.40 / aq=1:1.00
Язык : English
Default : Да
Forced : Нет
Аудио
Идентификатор : 2
Формат : AC-3
Формат/Информация : Audio Coding 3
Расширение режима : CM (complete main)
Параметр Endianness формата : Big
Идентификатор кодека : A_AC3
Продолжительность : 2 ч. 3 м.
Вид битрейта : Постоянный
Битрейт : 384 Кбит/сек
Каналы : 6 каналов
Расположение каналов : Front: L C R, Side: L R, LFE
Частота : 48,0 КГц
Частота кадров : 31,250 кадров/сек (1536 spf)
Метод сжатия : С потерями
Размер потока : 338 Мбайт (12%)
Заголовок : Дублированный (iTunes Russia)
Язык : Russian
Default : Да
Forced : Нет
Меню
00:00:00.000 : en:Chapter 01
00:09:27.000 : en:Chapter 02
00:15:51.000 : en:Chapter 03
00:22:38.000 : en:Chapter 04
00:29:18.000 : en:Chapter 05
00:38:44.000 : en:Chapter 06
00:46:45.000 : en:Chapter 07
00:53:04.000 : en:Chapter 08
00:56:19.000 : en:Chapter 09
01:02:45.000 : en:Chapter 10
01:07:50.000 : en:Chapter 11
01:12:26.000 : en:Chapter 12
01:17:14.000 : en:Chapter 13
01:22:47.000 : en:Chapter 14
01:26:34.000 : en:Chapter 15
01:32:31.000 : en:Chapter 16
01:40:23.000 : en:Chapter 17
01:47:38.000 : en:Chapter 18
01:51:13.000 : en:Chapter 19
01:53:59.000 : en:Chapter 20

Скриншоты

Яндекс.Метрика
Рейтинг@Mail.ru