Чародей и Белая змея / Bai she chuan shuo (Сиу-Тунг Чинг / Siu-Tung Ching) [2011 г., фэнтези, боевик, BDRip] DVO [GREEN TEA]

 

Создавать темы 02-Янв-2014 16:42

--Чародей и Белая змея / Bai she chuan shuo-- Производство: Китай, Гонконг
Год выпуска: 2011 г.
Жанр: фэнтези, боевик
Продолжительность: 01:42:00--Мировая премьера: 28 сентября 2011--Перевод: Любительский (двухголосый, закадровый) [GREEN TEA]--Режиссер: Сиу-Тунг Чинг / Siu-Tung Ching--В ролях: Джет Ли, Шенг Йи Хуанг, Рэймонд Лам, Чарлин Чой, Чжан Вэнь, Вивиан Су, Мириам Енг Чин Ва, Кар-Йинг Лау, Сует Лам, Чэпман То, Соня Квок, Альфред Синг--Описание: Фильм основывается на легенде о Белой Змее, которая хвалит смелую любовь, между змеиным духом Бай Сужен и ее мужем-человеком Сю Сяном.-- --Качество видео: BDRip
Контейнер: AVI
Видео кодек: XviD
Аудио кодек: AC3
Видео: 720x304 (2.37:1), 24.000 fps, XviD build 64 ~1642 kbps avg, 0.31 bit/pixel
Аудио: 48 kHz, AC3 Dolby Digital, 3/2 (L,C,R,l,r) + LFE ch, ~384 kbps
Cубтитры: отсутствуют.

Media Info

Общее
Полное имя : H:\Torrent2\The Sorcerer and the White Snake.2011.BDRip_[pirat.ca].avi
Формат : AVI
Формат/Информация : Audio Video Interleave
Размер файла : 1,45 Гбайт
Продолжительность : 1 ч. 42 м.
Общий поток : 2036 Кбит/сек
Программа кодирования : VirtualDubMod 1.5.10.2 (build 2540/release)
Видео
Идентификатор : 0
Формат : MPEG-4 Visual
Профиль формата : Advanced [email protected]
Параметр BVOP формата : 1
Параметр QPel формата : Нет
Параметр GMC формата : Без точки перехода
Параметр матрицы формата : Выборочная
Идентификатор кодека : XVID
Идентификатор кодека/Подсказка : XviD
Продолжительность : 1 ч. 42 м.
Битрейт : 1643 Кбит/сек
Ширина : 720 пикселей
Высота : 304 пикселя
Соотношение сторон : 2,35:1
Частота кадров : 24,000 кадра/сек
Цветовое пространство : YUV
Субдискретизация насыщенности : 4:2:0
Битовая глубина : 8 бит
Тип развёртки : Прогрессивная
Метод сжатия : С потерями
Бит/(Пиксели*Кадры) : 0.313
Размер потока : 1,17 Гбайт (81%)
Библиотека кодирования : XviD 64
Аудио
Идентификатор : 1
Формат : AC-3
Формат/Информация : Audio Coding 3
Расширение режима : CM (complete main)
Параметр Endianness формата : Big
Идентификатор кодека : 2000
Продолжительность : 1 ч. 42 м.
Вид битрейта : Постоянный
Битрейт : 384 Кбит/сек
Каналы : 6 каналов
Расположение каналов : Front: L C R, Side: L R, LFE
Частота : 48,0 КГц
Битовая глубина : 16 бит
Метод сжатия : С потерями
Задержка видео : 18 мс.
Размер потока : 280 Мбайт (19%)
Выравнивание : Разделение по промежуткам
Продолжительность промежутка : 42 мс. (1,00 видеокадр)
Время предзагрузки промежутка : 500 мс.

Скриншоты

Трейлер
Яндекс.Метрика
Рейтинг@Mail.ru