[ Сегодня на трекере фрилич! Идет свободное скачивание без начисления Download ]

Олдбой / Oldboy (Спайк Ли / Spike Lee) [2013 г., триллер, драма, детектив, боевик, TS] Dub

 

Создавать темы 02-Янв-2014 16:41

--Олдбой / Oldboy--«Загадка не в том, почему тебя лишили свободы, а почему тебе её вернули»- -Производство: США
Год выпуска: 2013 г.
Жанр: триллер, драма, детектив, боевик
Продолжительность: 01:43:20--Мировая премьера: 11 ноября 2013
Российская премьера: 28 ноября 2013, «Каравелла DDC»--Перевод: Профессиональный (полное дублирование)--Режиссер: Спайк Ли / Spike Lee--В ролях: Джош Бролин, Элизабет Олсен, Шарлто Копли, Сэмюэл Л. Джексон, Майкл Империоли, Пом Клементьефф, Джеймс Рэнсон, Макс Казелла, Линда Эмонд, Элвис Ноласко--Описание: Фильм рассказывает о рекламщике, которого некто похитил и 20 лет продержал в одиночной камере, никак не объясняя своих мотивов. Столь же неожиданно получив однажды свободу, он решает разыскать того, кто организовал его похищение, и обнаруживает, что неизвестный злодей продолжает мучить его загадками. Погоня за местью приводит его к юной социальной работнице и некоему человеку, в руках которого якобы находится ключ к его спасению.-- --Качество видео: TS
Контейнер: AVI
Видео кодек: XviD
Аудио кодек: AC3
Видео: 720x304 (2.37:1), 25 fps, XviD build 50 ~1750 kbps avg, 0.32 bit/pixel
Аудио: 48 kHz, AC3 Dolby Digital, 2/0 (L,R) ch, ~192 kbps
Cубтитры: Отсутствуют

Media Info

Общее
Полное имя : H:\Torrent2\Oldboy.D.TS.2013._[pirat.ca].avi
Формат : AVI
Формат/Информация : Audio Video Interleave
Размер файла : 1,41 Гбайт
Продолжительность : 1 ч. 43 м.
Общий поток : 1953 Кбит/сек
Программа кодирования : VirtualDubMod 1.5.10.3 | www.virtualdub-fr.org || (build 2550/release)
Библиотека кодирования : VirtualDubMod build 2550/release
Видео
Идентификатор : 0
Формат : MPEG-4 Visual
Профиль формата : Advanced [email protected]
Параметр BVOP формата : 2
Параметр QPel формата : Да
Параметр GMC формата : 3 точки перехода
Параметр матрицы формата : Default (H.263)
Идентификатор кодека : XVID
Идентификатор кодека/Подсказка : XviD
Продолжительность : 1 ч. 43 м.
Битрейт : 1751 Кбит/сек
Ширина : 720 пикселей
Высота : 304 пикселя
Соотношение сторон : 2,35:1
Частота кадров : 25,000 кадров/сек
Цветовое пространство : YUV
Субдискретизация насыщенности : 4:2:0
Битовая глубина : 8 бит
Тип развёртки : Прогрессивная
Метод сжатия : С потерями
Бит/(Пиксели*Кадры) : 0.320
Размер потока : 1,26 Гбайт (90%)
Библиотека кодирования : XviD 1.2.1 (UTC 2008-12-04)
Аудио
Идентификатор : 1
Формат : AC-3
Формат/Информация : Audio Coding 3
Расширение режима : CM (complete main)
Параметр Endianness формата : Big
Идентификатор кодека : 2000
Продолжительность : 1 ч. 43 м.
Вид битрейта : Постоянный
Битрейт : 192 Кбит/сек
Каналы : 2 канала
Расположение каналов : Front: L R
Частота : 48,0 КГц
Битовая глубина : 16 бит
Метод сжатия : С потерями
Размер потока : 142 Мбайт (10%)
Выравнивание : Разделение по промежуткам
Продолжительность промежутка : 40 мс. (1,00 видеокадр)
Время предзагрузки промежутка : 500 мс.

Скриншоты

Трейлер
Яндекс.Метрика
Рейтинг@Mail.ru