Появляется Данстон / Dunston Checks In (Кен Куэпис / Ken Kwapis) [1996 г., комедия, приключения, семейный, WEB-DLRip] MVO [ОРТ]

 

Создавать темы 04-Авг-2016 05:14

-Появляется Данстон / Dunston Checks In-- Производство: США, 20th Century Fox Film Corporation, Joe Wizan/Todd Black, ...
Год выпуска: 1996 г.
Жанр: комедия, приключения, семейный
Продолжительность: 01:28:17Мировая премьера: 7 января 1996
Дата выхода DVD: 28 января 2010, «Двадцатый Век Фокс СНГ»
Перевод: Профессиональный (многоголосый, закадровый) [ОРТ]
Режиссер: Кен Куэпис / Ken Kwapis-В ролях: Джейсон Александер, Фэй Данауэй, Эрик Ллойд, Руперт Эверетт, Грэм Сэк, Пол Рубенс, Гленн Шэдикс, Нэтан Дэвис-Описание: Роскошный отель стоит на ушах: готовится праздник. Грандиозный карнавал должен пройти без цензура без задоринки. Тогда управляющий получит долгожданный отпуск, Маджестик Хоутел — еще больше богатеньких постояльцев, а его корыстная хозяйка — дополнительный барыш. Тут-то и появляется экстравагантный господин с орангутангом Данстоном.Если б знать, что новый постоялец зарабатывает воровством, а симпатяга Данстон умеет очень ловко обшаривать карманы и дамские сумочки. Но до некоторых пор все выглядит вполне пристойно… Пока Данстону вдруг не надоедает работать и он, сбежав от хозяина, не заводит дружбу с детьми управляющего. Вместе они с удовольствием пускают все вокруг себя кувырком, превратив респектабельное заведение в цирковое училище.-
Качество видео: WEB-DLRip
Контейнер: AVI
Видео кодек: XviD
Аудио кодек: AC3
Видео: 720x400 (1.80:1), 23.976 fps, XviD build 73 ~1539 kbps avg, 0.22 bit/pixel
Аудио: 48 kHz, AC3 Dolby Digital, 2/0 (L,R) ch, ~192 kbps
Cубтитры: отсутствуют

Рецензия

Это был один из моих любимых фильмов в детстве, и тогда я смотрела его раз по 10 и знала наизусть, но потом время пробежало, и я, признаться, подзабыла его, но услышав как-то название, снова загорелась его посмотреть.Всё так же я радуюсь этому фильму, как ребёнок. Все так же нахожу забавным похождения Данстона и его друга Кайла, и радуюсь тому, как ловко они убегают от дирекции отеля, Лорда Ратледжа (в блистательном исполнении и полном перевоплощении Руперта Эверетта) и многих других.Я люблю подобные комедии. И к сожалению, из новинок ничего так не западает мне в душу, как комедии о животных 90-х годов, поэтому очень ими дорожу, как о воспоминаниях своего детства.Объективно, разумеется, судить не могу. Для меня это только:10 из 10

Media Info

Общее
Полное имя : J:\Появляется Данстон\Dunston Checks In.1996.WEB-DLRip.[pirat.ca].avi
Формат : AVI
Формат/Информация : Audio Video Interleave
Размер файла : 1,07 Гбайт
Продолжительность : 1 ч. 28 м.
Общий поток : 1741 Кбит/сек
Название фильма : Dunston Checks In.1996.WEB-DLRip.[pirat.ca]
Программа кодирования : VirtualDubMod 1.5.10.3 (build 2550/release)Видео
Идентификатор : 0
Формат : MPEG-4 Visual
Профиль формата : Advanced [email protected]/* */
Параметр BVOP формата : 2
Параметр QPel формата : Нет
Параметр GMC формата : Без точки перехода
Параметр матрицы формата : Выборочная
Идентификатор кодека : XVID
Идентификатор кодека/Подсказка : XviD
Продолжительность : 1 ч. 28 м.
Битрейт : 1540 Кбит/сек
Ширина : 720 пикселей
Высота : 400 пикселей
Соотношение сторон : 16:9
Частота кадров : 23,976 (23976/1000) кадра/сек
Цветовое пространство : YUV
Субдискретизация насыщенности : 4:2:0
Битовая глубина : 8 бит
Тип развёртки : Прогрессивная
Метод сжатия : С потерями
Бит/(Пиксели*Кадры) : 0.223
Размер потока : 971 Мбайт (88%)
Библиотека кодирования : XviD 73Аудио
Идентификатор : 1
Формат : AC-3
Формат/Информация : Audio Coding 3
Расширение режима : CM (complete main)
Параметр Endianness формата : Big
Идентификатор кодека : 2000
Продолжительность : 1 ч. 28 м.
Вид битрейта : Постоянный
Битрейт : 192 Кбит/сек
Каналы : 2 канала
Расположение каналов : Front: L R
Частота : 48,0 КГц
Частота кадров : 31,250 кадров/сек (1536 spf)
Метод сжатия : С потерями
Размер потока : 121 Мбайт (11%)
Выравнивание : Разделение по промежуткам
Продолжительность промежутка : 42 мс. (1,00 видеокадр)
Время предзагрузки промежутка : 500 мс.

Скриншот c названием фильма

Скриншоты

-Трейлер
Яндекс.Метрика
Рейтинг@Mail.ru