[ Сегодня на трекере фрилич! Идет свободное скачивание без начисления Download ]

Закон и кулак (Перед восходом солнца) / Prawo i piesc (Ежи Гоффман / Jerzy Hoffman, Эдвард Скужевский / Edward Skorzewski) [1964 г., драма, DVDRip] Dub [Киностудия имени М. Горького 1965]

 

Создавать темы 04-Авг-2016 05:11

-Закон и кулак (Перед восходом солнца) / Prawo i piesc-- Производство: Польша, Kamera Film Unit
Год выпуска: 1964 г.
Жанр: драма
Продолжительность: 01:32:41Мировая премьера: 14 сентября 1964
Дата выхода DVD: 12 апреля 2010, «Мастер Тэйп»
Перевод: Профессиональный (полное дублирование) [Киностудия имени М. Горького 1965]
Режиссер: Ежи Гоффман / Jerzy Hoffman, Эдвард Скужевский / Edward Skorzewski-В ролях: Густав Холоубек, Зофья Мрозовска, Ханна Скаржанка, Веслав Голас, Здзислав Маклякевич, Рышард Петруский, Ежи Пшибыльский, Весвава Квашьневска, Эва Висьневска, Збигнев Добжиньский, Зофья Червиньска, Юзеф Новак-Описание: Июль 1945г. Представители польского правительства формируют группы добровольцев, в задачу которых входит охрана государственного имущества на землях, освобожденных от гитлеровцев. В одной из таких групп оказалось пятеро бандитов, готовых на все ради личной наживы. Шестой член группы, бывший узник Освенцима Анджей вступает с ними в непримиримую борьбу…-
Качество видео: DVDRip
Контейнер: AVI
Видео кодек: XviD
Аудио кодек: AC3
Видео: 640x496 (1.29:1), 25 fps, XviD build 73 ~1981 kbps avg, 0.25 bit/pixel
Аудио: 48 kHz, AC3 Dolby Digital, 2/0 (L,R) ch, ~256 kbps
Cубтитры: отсутствуют

Рецензия

Отстав от поезда из-за благородного порыва, главный герой этого фильма оказывается в небольшой команде, которая направляется в город, считавшийся во времена Третьего рейха немецким, а после войны снова оказавшийся в составе Польши. Делать надо много, ведь война только-только кончилась, поэтому нужно подготовить пустой, как в постапокалиптических сюжетах, городок к прибытию милиции и репатриантов. Да вот незадача: почти все в этой команде оказываются «оборотнями без погон», то есть они и не собирались наводить порядок, а только награбить и сбежать, может быть, даже за границу. И только главный герой, вовремя поняв, в чем тут дело, пытается им противостоять.«Закон и кулак» — фильм остросюжетный. Не стоит ждать от него правдоподобия будней. Пользуясь богатой для сюжетных перипетий возможностью — пустой город, несколько не доверяющих друг другу мужчин и еще меньше случайно оказавшихся в этом месте женщин — режиссеры фильма снимают его совсем не в рамках соцреализма. Декорациями и сюжетным рисунком «один против всех» картина напоминает вестерн, даже в песне, открывающей и закрывающей фильм, есть что-то неуловимое схожее с музыкой из американского кино про суровых мужчин, которые и днем, и ночью не расстаются с верным оружием. А вот акцентацией на подвижности морали героев, их конформизме и способности противопоставить свои интересы интересам других вкупе с ночными сценами, погонями, драками и перестрелками в подвалах «Закон и порядок», конечно же, напоминает «нуарный» криминал. Такое сочетание жанров тем более смотрится выигрышно из-за того, как в фильме подчеркнуто переходное состояние между концом одной и началом другой эпохи. Режиссеры показывают нам героев-одиночек, ставят эксперимент, может ли в них проснуться какое-то чувство, кроме эгоизма, возвышающее их и указывающее на возможность будущего. И этот эксперимент можно назвать вполне удачным: синтез вестерна, нуара, психологического саспенса, реализованный в привычном для фильмов соцлагеря материале, до сих пор смотрится вполне удачным.8 из 10.

Media Info

Общее
Полное имя : F:\Закон и кулак\Prawo i piesc.1964.DVDRip.[pirat.ca].avi
Формат : AVI
Формат/Информация : Audio Video Interleave
Размер файла : 1,45 Гбайт
Продолжительность : 1 ч. 32 м.
Общий поток : 2246 Кбит/сек
Название фильма : Prawo i piesc.1964.DVDRip.[pirat.ca]
Программа кодирования : VirtualDubMod 1.5.10.3 | www.virtualdub-fr.org || (build 2550/release)Видео
Идентификатор : 0
Формат : MPEG-4 Visual
Профиль формата : Advanced [email protected]/* */
Параметр BVOP формата : 2
Параметр QPel формата : Нет
Параметр GMC формата : Без точки перехода
Параметр матрицы формата : Выборочная
Идентификатор кодека : XVID
Идентификатор кодека/Подсказка : XviD
Продолжительность : 1 ч. 32 м.
Битрейт : 1981 Кбит/сек
Ширина : 640 пикселей
Высота : 496 пикселей
Соотношение сторон : 1,290
Частота кадров : 25,000 кадров/сек
Цветовое пространство : YUV
Субдискретизация насыщенности : 4:2:0
Битовая глубина : 8 бит
Тип развёртки : Прогрессивная
Метод сжатия : С потерями
Бит/(Пиксели*Кадры) : 0.250
Размер потока : 1,28 Гбайт (88%)
Библиотека кодирования : XviD 73Аудио
Идентификатор : 1
Формат : AC-3
Формат/Информация : Audio Coding 3
Расширение режима : CM (complete main)
Параметр Endianness формата : Big
Идентификатор кодека : 2000
Продолжительность : 1 ч. 32 м.
Вид битрейта : Постоянный
Битрейт : 256 Кбит/сек
Каналы : 2 канала
Расположение каналов : Front: L R
Частота : 48,0 КГц
Частота кадров : 31,250 кадров/сек (1536 spf)
Метод сжатия : С потерями
Размер потока : 169 Мбайт (11%)
Выравнивание : Разделение по промежуткам
Продолжительность промежутка : 40 мс. (1,00 видеокадр)
Время предзагрузки промежутка : 500 мс.

Скриншот c названием фильма

Скриншоты

-Трейлер
Яндекс.Метрика
Рейтинг@Mail.ru