Джек Рид: Знак почета (ТВ) / Jack Reed: Badge of Honor (Кевин Коннор / Kevin Connor) [1993 г., драма, криминал, DVDRip] MVO

 

Создавать темы 04-Авг-2016 05:09

-Джек Рид: Знак почета (ТВ) / Jack Reed: Badge of Honor-- Производство: США, Kushner-Locke Company, Multimedia Motion Pictures
Год выпуска: 1993 г.
Жанр: драма, криминал
Продолжительность: 01:29:22Мировая премьера: 12 ноября 1993
Перевод: Профессиональный (многоголосый, закадровый) [ТК "Шестой канал" по заказу СТС, Санкт-Петербург]
Режиссер: Кевин Коннор / Kevin Connor-В ролях: Брайан Деннехи, Сьюзэн Руттан, Элис Крайдж, Р.Д. Колл, Эми Акино, Джо Андерсон, Байрон Миннс, Нил МакДонаф, Джастин Бернетт, Майкл Тэлботт-Описание: Сержанту Джеку Риду поручено новое расследование: молодая мать-одиночка поехала в местную больницу сделать рентгеновский снимок и не вернулась домой к сыну. Через некоторое время находят труп пропавшей без вести. Рид быстро вычисляет подозреваемого — это врач-рентгенолог, но у него есть алиби, подтвержденное правительственными службами. Джек Рид берется опровергнуть железное алиби убийцы.-
Качество видео: DVDRip
Контейнер: AVI
Видео кодек: XviD
Аудио кодек: AC3
Видео: 704x528 (1.33:1), 25 fps, XviD build 73 ~1988 kbps avg, 0.21 bit/pixel
Аудио: 48 kHz, AC3 Dolby Digital, 2/0 (L,R) ch, ~192 kbps
Cубтитры: отсутствуют

Media Info

Общее
Полное имя : E:\Джек Рид - человек чести\Jack Reed - Badge of Honor.1993.DVDRip.[pirat.ca].avi
Формат : AVI
Формат/Информация : Audio Video Interleave
Размер файла : 1,37 Гбайт
Продолжительность : 1 ч. 29 м.
Общий поток : 2190 Кбит/сек
Название фильма : Jack Reed - Badge of Honor.1993.DVDRip.[pirat.ca]
Программа кодирования : VirtualDubMod 1.5.10.3 (build 2550/release)Видео
Идентификатор : 0
Формат : MPEG-4 Visual
Профиль формата : Advanced [email protected]/* */
Параметр BVOP формата : 2
Параметр QPel формата : Нет
Параметр GMC формата : Без точки перехода
Параметр матрицы формата : Выборочная
Идентификатор кодека : XVID
Идентификатор кодека/Подсказка : XviD
Продолжительность : 1 ч. 29 м.
Битрейт : 1989 Кбит/сек
Ширина : 704 пикселя
Высота : 528 пикселей
Соотношение сторон : 4:3
Частота кадров : 25,000 кадров/сек
Цветовое пространство : YUV
Субдискретизация насыщенности : 4:2:0
Битовая глубина : 8 бит
Тип развёртки : Прогрессивная
Метод сжатия : С потерями
Бит/(Пиксели*Кадры) : 0.214
Размер потока : 1,24 Гбайт (91%)
Библиотека кодирования : XviD 73Аудио
Идентификатор : 1
Формат : AC-3
Формат/Информация : Audio Coding 3
Расширение режима : CM (complete main)
Параметр Endianness формата : Big
Идентификатор кодека : 2000
Продолжительность : 1 ч. 29 м.
Вид битрейта : Постоянный
Битрейт : 192 Кбит/сек
Каналы : 2 канала
Расположение каналов : Front: L R
Частота : 48,0 КГц
Частота кадров : 31,250 кадров/сек (1536 spf)
Метод сжатия : С потерями
Размер потока : 123 Мбайт (9%)
Выравнивание : Разделение по промежуткам
Продолжительность промежутка : 40 мс. (1,00 видеокадр)
Время предзагрузки промежутка : 500 мс.

Скриншот c названием фильма

Скриншоты

Яндекс.Метрика
Рейтинг@Mail.ru