[ Сегодня на трекере фрилич! Идет свободное скачивание без начисления Download ]

(Heavy Metal) Now or Never - II - (Japanese Edition) - 2016 [FLAC, image+.cue, lossless]

 

Создавать темы 04-Авг-2016 04:57

-Now or Never / II - (Japanese Edition)-- Год издания: 2016
Страна: International
Жанр: Heavy Metal
Продолжительность: 00:52:21-Лейбл издания: Bickee Music
Тип альбома: Master
Страна-выпуска диска: 23 Mar, 2016 Japan
Номер по каталогу: [DAKBKMY-1015]
Формат: FLAC
Битрейт аудио: lossless
Тип рипа: image+.cue
Наличие сканов в содержимом раздачи: да-

Трэклист

01. The Voice Inside
02. Sonic Ecstasy
03. King for a Day
04. I Shall Remain
05. I'll Be Waiting
06. The Answer
07. Revolution
08. Save Me
09. Feel Alive
10. 'Til the End of Time
-

Лог создания рипа

Exact Audio Copy V1.1 from 23. June 2015EAC extraction logfile from 25. July 2016, 11:44Now Or Never / IIUsed drive : ATAPI iHAS122 W Adapter: 2 ID: 0Read mode : Secure
Utilize accurate stream : Yes
Defeat audio cache : Yes
Make use of C2 pointers : NoRead offset correction : 48
Overread into Lead-In and Lead-Out : No
Fill up missing offset samples with silence : Yes
Delete leading and trailing silent blocks : No
Null samples used in CRC calculations : Yes
Used interface : Installed external ASPI interfaceUsed output format : User Defined Encoder
Selected bitrate : 1024 kBit/s
Quality : High
Add ID3 tag : No
Command line compressor : C:\Program Files\FLAC\flac.exe
Additional command line options : -V -8 -T "Date=%year%" -T "Genre=%genre%" -T"COMMENT=Ripped by Ilijan" -8 -V %source%TOC of the extracted CD Track | Start | Length | Start sector | End sector
---------------------------------------------------------
1 | 0:00.00 | 5:38.47 | 0 | 25396
2 | 5:38.47 | 5:07.61 | 25397 | 48482
3 | 10:46.33 | 5:28.66 | 48483 | 73148
4 | 16:15.24 | 4:45.36 | 73149 | 94559
5 | 21:00.60 | 5:20.45 | 94560 | 118604
6 | 26:21.30 | 4:30.31 | 118605 | 138885
7 | 30:51.61 | 4:21.68 | 138886 | 158528
8 | 35:13.54 | 7:04.65 | 158529 | 190393
9 | 42:18.44 | 4:30.71 | 190394 | 210714
10 | 46:49.40 | 5:31.42 | 210715 | 235581Range status and errorsSelected range Filename D:\ilко\Now Or Never - II.wav Peak level 98.6 %
Extraction speed 3.0 X
Range quality 99.9 %
Test CRC 23878F53
Copy CRC 23878F53
Copy OKNo errors occurredAccurateRip summaryTrack 1 accurately ripped (confidence 2) [5992CB50] (AR v2)
Track 2 accurately ripped (confidence 2) [D1F54C76] (AR v2)
Track 3 accurately ripped (confidence 2) [E040645E] (AR v2)
Track 4 accurately ripped (confidence 2) [FFBE50CB] (AR v2)
Track 5 accurately ripped (confidence 2) [368D9E9E] (AR v2)
Track 6 accurately ripped (confidence 2) [8B08F884] (AR v2)
Track 7 accurately ripped (confidence 2) [2334758A] (AR v2)
Track 8 accurately ripped (confidence 2) [B755F7A7] (AR v2)
Track 9 accurately ripped (confidence 2) [CD15563B] (AR v2)
Track 10 accurately ripped (confidence 2) [D2F706A7] (AR v2)All tracks accurately rippedEnd of status report---- CUETools DB Plugin V2.1.6[CTDB TOCID: kwk6pTAWQKbJ5Ho2iqoHE8XcvQo-] found
Submit result: kwk6pTAWQKbJ5Ho2iqoHE8XcvQo- has been confirmed
Track | CTDB Status
1 | (3/3) Accurately ripped
2 | (3/3) Accurately ripped
3 | (3/3) Accurately ripped
4 | (3/3) Accurately ripped
5 | (3/3) Accurately ripped
6 | (3/3) Accurately ripped
7 | (3/3) Accurately ripped
8 | (3/3) Accurately ripped
9 | (3/3) Accurately ripped
10 | (3/3) Accurately ripped==== Log checksum BA5728B80C92C877E528A1FF295680DC593C81C4589F8219D746824C9883294A ====
-

Индексная карта (non-compilant .cue)

REM GENRE Heavy Metal
REM DATE 2016
REM DISCID 7F0C450A
REM COMMENT 23 Mar, 2016 Japan
PERFORMER "Now Or Never"
TITLE "II"
FILE "Now Or Never - II.flac" WAVE
TRACK 01 AUDIO
TITLE "The Voice Inside"
FLAGS DCP
INDEX 01 00:00:00
TRACK 02 AUDIO
TITLE "Sonic Ecstasy"
FLAGS DCP
INDEX 00 05:37:38
INDEX 01 05:38:47
TRACK 03 AUDIO
TITLE "King For A Day"
FLAGS DCP
INDEX 00 10:44:43
INDEX 01 10:46:33
TRACK 04 AUDIO
TITLE "I Shall Remain"
FLAGS DCP
INDEX 00 16:14:63
INDEX 01 16:15:24
TRACK 05 AUDIO
TITLE "I'll Be Waiting"
FLAGS DCP
INDEX 00 20:59:18
INDEX 01 21:00:60
TRACK 06 AUDIO
TITLE "The Answer"
FLAGS DCP
INDEX 00 26:19:43
INDEX 01 26:21:30
TRACK 07 AUDIO
TITLE "Revolution"
FLAGS DCP
INDEX 00 30:49:52
INDEX 01 30:51:61
TRACK 08 AUDIO
TITLE "Save Me"
FLAGS DCP
INDEX 00 35:11:45
INDEX 01 35:13:54
TRACK 09 AUDIO
TITLE "Feel Alive"
FLAGS DCP
INDEX 00 42:16:36
INDEX 01 42:18:44
TRACK 10 AUDIO
TITLE "'Til The End Of Time"
FLAGS DCP
INDEX 00 46:47:66
INDEX 01 46:49:40
-

Скриншот спектра частот

-YouTube
Яндекс.Метрика
Рейтинг@Mail.ru