[ Сегодня на трекере фрилич! Идет свободное скачивание без начисления Download ]

Смешарики. Легенда о золотом драконе (Денис Чернов) [2016 г., мультфильм, приключения, комедия, BDRip, 1080p]

 

Создавать темы 04-Авг-2016 04:54

-Смешарики. Легенда о золотом драконе
«Предпоследняя надежда человечества»
-- Производство: Россия
Режиссер: Денис Чернов
Жанр: мультфильм, приключения, комедия
Год выпуска: 2016 г.
Продолжительность: 01:20:15Перевод: Не требуется
Роли озвучивали: Михаил Черняк, Сергей Мардарь, Антон Виноградов, Владимир Постников, Светлана Письмиченко, Вадим Бочанов, Гарик Харламов, Дмитрий Нагиев, Елена Шульман, Владимир Маслаков-Описание: Выдающийся учёный и его команда отправляются в самое сердце диких джунглей, где их ждут опасные приключения, свирепые туземцы и расхитители гробниц, до зубов вооруженные гаджетами.- - -Качество видео: BDRip
Контейнер: MKV
Стандарт разрешения: 1080p
Видео кодек: H.264/AVC
Аудио кодек: DTS
Видео: 1920x804 at 23.976 fps, ~9355 kbps avg
Аудио: Russian: 48 kHz, DTS, 3/2 (L,C,R,l,r) + LFE ch, ~1509.00 kbps avg
Cубтитры: отсутствуют

Media Info

Код:
Format                      : Matroska
Format version              : Version 4 / Version 2
File size                   : 6.21 GiB
Duration                    : 1h 20mn
Overall bit rate            : 11.1 Mbps
Movie name                  : Смешарики. Легенда о золотом драконе (2016) - release by messafan for HDCLUB
Encoded date                : UTC 2016-07-30 16:49:13
Writing application         : mkvmerge v6.7.0 ('Back to the Ground') 64bit built on Jan  8 2014 15:10:52
Writing library             : libebml v1.3.0 + libmatroska v1.4.1Video
ID                          : 1
Format                      : AVC
Format/Info                 : Advanced Video Codec
Format profile              : [email protected]/*  */
Format settings, CABAC      : Yes
Format settings, ReFrames   : 4 frames
Codec ID                    : V_MPEG4/ISO/AVC
Duration                    : 1h 20mn
Bit rate                    : 9 355 Kbps
Width                       : 1 920 pixels
Height                      : 804 pixels
Display aspect ratio        : 2.40:1
Frame rate mode             : Constant
Frame rate                  : 23.976 fps
Color space                 : YUV
Chroma subsampling          : 4:2:0
Bit depth                   : 8 bits
Scan type                   : Progressive
Bits/(Pixel*Frame)          : 0.253
Stream size                 : 5.24 GiB (84%)
Writing library             : x264 core 148 r2705kMod 3f5ed56
Encoding settings           : cabac=1 / ref=4 / deblock=1:-3:-3 / analyse=0x3:0x113 / me=umh / subme=11 / psy=1 / fade_compensate=0.00 / psy_rd=0.90:0.00 / mixed_ref=1 / me_range=32 / chroma_me=1 / trellis=2 / 8x8dct=1 / cqm=0 / deadzone=21,11 / fast_pskip=0 / chroma_qp_offset=-4 / threads=12 / lookahead_threads=3 / sliced_threads=0 / nr=0 / decimate=1 / interlaced=0 / bluray_compat=0 / constrained_intra=0 / fgo=0 / bframes=10 / b_pyramid=2 / b_adapt=2 / b_bias=0 / direct=3 / weightb=1 / open_gop=0 / weightp=2 / keyint=250 / keyint_min=23 / scenecut=40 / intra_refresh=0 / rc_lookahead=40 / rc=crf / mbtree=0 / crf=17.1000 / qcomp=0.60 / qpmin=0 / qpmax=69 / qpstep=4 / vbv_maxrate=50000 / vbv_bufsize=65000 / crf_max=0.0 / nal_hrd=none / filler=0 / ip_ratio=1.30 / pb_ratio=1.25 / aq=1:0.70
Language                    : English
Default                     : Yes
Forced                      : NoAudio
ID                          : 2
Format                      : DTS
Format/Info                 : Digital Theater Systems
Mode                        : 16
Format settings, Endianness : Big
Codec ID                    : A_DTS
Duration                    : 1h 20mn
Bit rate mode               : Constant
Bit rate                    : 1 509 Kbps
Channel(s)                  : 6 channels
Channel positions           : Front: L C R, Side: L R, LFE
Sampling rate               : 48.0 KHz
Bit depth                   : 16 bits
Compression mode            : Lossy
Stream size                 : 866 MiB (14%)
Title                       : Rus DTS 5.1 @ 1509kbps
Language                    : Russian
Default                     : Yes
Forced                      : NoMenu
00:00:00.000                : en:00:00:00.000
00:11:51.961                : en:00:11:51.961
00:20:18.634                : en:00:20:18.634
00:30:19.568                : en:00:30:19.568
00:39:01.839                : en:00:39:01.839
00:50:24.021                : en:00:50:24.021
00:59:05.834                : en:00:59:05.834
01:09:52.480                : en:01:09:52.480

Скриншот c названием мультфильма

Скриншоты

Яндекс.Метрика
Рейтинг@Mail.ru